Waking Life (2001)(DVDRIP)(LATINO)(MG)


Waking Life

(Despertando a la Vida)

(2001)


(DVDRIP - Latino)





Despertando a la vida (Waking Life, en su título original en inglés) es una película estadounidense de animación de 2001 dirigida por Richard Linklater. Fue filmada mediante la técnica de rotoscopia y completamente en vídeo digital, para luego ser editada por un grupo de artistas mediante el uso de ordenadores. El proceso permitió dibujar líneas estilizadas y colores a cada fotograma y es similar al estilo de rotoscopía usado por Ralph Bakshi en la década de 1970.


Un joven se encuentra en permanente estado de sueño lúcido. La cinta sigue al protagonista mientras inicialmente observa y luego participa en discusiones filosóficas que entrelazan temas como realidad y apariencia, libre albedrío, nuestras relaciones con otros, y el significado de la vida. Durante su curso, el film toca otros temas, que incluyen: existencialismo, situaciones políticas, posthumanidad y la teoría cinematográfica de André Bazin.



Especificaciones:


Format                         : AVI
Format/Info                    : Audio Video Interleave
File size                      : 742 MiB
Duration                       : 1h 40mn
Overall bit rate mode          : Variable
Overall bit rate               : 1 029 Kbps
Writing application            : VirtualDubMod 1.5.4.1 (build 2066/release)
Writing library                : VirtualDubMod build 2066/release

Video
ID                             : 0
Format                         : MPEG-4 Visual
Format settings, BVOP          : 1
Format settings, QPel          : No
Format settings, GMC           : No warppoints
Format settings, Matrix        : Default (H.263)
Muxing mode                    : Packed bitstream
Codec ID                       : DX50
Codec ID/Hint                  : DivX 5
Duration                       : 1h 40mn
Bit rate                       : 900 Kbps
Width                          : 720 pixels
Height                         : 480 pixels
Display aspect ratio           : 3:2
Frame rate                     : 23.976 fps
Color space                    : YUV
Chroma subsampling             : 4:2:0
Bit depth                      : 8 bits
Scan type                      : Progressive
Compression mode               : Lossy
Bits/(Pixel*Frame)             : 0.109
Stream size                    : 648 MiB (87%)
Writing library                : DivX 5.2.1 (WaffleDay) (UTC 2004-09-08)

Audio
ID                             : 1
Format                         : MPEG Audio
Format version                 : Version 1
Format profile                 : Layer 3
Mode                           : Joint stereo
Codec ID                       : 55
Codec ID/Hint                  : MP3
Duration                       : 1h 40mn
Bit rate mode                  : Variable
Bit rate                       : 112 Kbps
Channel(s)                     : 2 channels
Sampling rate                  : 48.0 KHz
Compression mode               : Lossy
Stream size                    : 84.0 MiB (11%)
Alignment                      : Aligned on interleaves
Interleave, duration           : 24 ms (0.58 video frame)
Interleave, preload duration   : 158 ms
Writing library                : LAME3.93a
Encoding settings              : -m j -V 4 -q 2 -lowpass 16 --abr 112




Link de descarga:






IMPORTANTE:
Cambiar la extensión de .RAR a .AVI
Waking Life (2001)(DVDRIP)(LATINO)(MG)
5 Puntos Score: 5/10
Visitas: 1394 Favoritos: 1
Ver los usuarios que votaron...
1 Comentarios Waking Life (2001)(DVDRIP)(LATINO)(MG)
Se ve buena amigo, gracias.  
Para dejar un comentario Registrate! o.. eres ya usuario? Accede!