Oops.. Este post tiene los enlaces eliminados!

Identi revisa las denuncias de los usuarios en busca de enlaces eliminados que no dejan descargar los archivos, este mensaje te informa que este post que estas viendo tiene los enlaces eliminados.

Usa el Buscador

Por favor, te recomendamos que uses el buscador para encontrar más alternativas.

Caminando entre dinosaurios [1080p][Dual+Subs]

  • Categoría: Reciclaje
  • Publicado hace más de 1 año


INFORMACIÓN



FICHA TÉCNICA

General
Unique ID : 217013643966461960478883352079070723000 (0xA3434EB9FEBEA9B29EEB0AADA654FBB8)
Complete name : G:Caminando entre dinosaurios.mkv
Format : Matroska
Format version : Version 2
File size : 6.95 GiB
Duration : 1h 27mn
Overall bit rate : 11.4 Mbps
Movie name : Cam.Dinos.1080p.santorun1
Encoded date : UTC 2014-04-21 20:51:59
Writing application : mkvmerge v4.8.0 (?I Got The??) creado el May 24 2011 03:12:58
Writing library : libebml v1.2.0 + libmatroska v1.1.0
Video
ID : 1
Format : AVC
Format/Info : Advanced Video Codec
Format profile : [email protected]
Format settings, CABAC : Yes
Format settings, ReFrames : 5 frames
Codec ID : V_MPEG4/ISO/AVC
Duration : 1h 27mn
Bit rate : 9 233 Kbps
Width : 1 920 pixels
Height : 808 pixels
Display aspect ratio : 2.40:1
Frame rate mode : Constant
Frame rate : 23.976 fps
Color space : YUV
Chroma subsampling : 4:2:0
Bit depth : 8 bits
Scan type : Progressive
Bits/(Pixel*Frame) : 0.248
Stream size : 5.50 GiB (79%)
Title : Cam.Dinos.1080p.santorun1
Writing library : x264 core 142 r2389 956c8d8
Encoding settings : cabac=1 / ref=5 / deblock=1:0:0 / analyse=0x3:0x133 / me=umh / subme=7 / psy=1 / psy_rd=1.00:0.00 / mixed_ref=1 / me_range=16 / chroma_me=1 / trellis=1 / 8x8dct=1 / cqm=0 / deadzone=21,11 / fast_pskip=1 / chroma_qp_offset=-2 / threads=12 / lookahead_threads=2 / sliced_threads=0 / nr=0 / decimate=1 / interlaced=0 / bluray_compat=0 / constrained_intra=0 / bframes=3 / b_pyramid=2 / b_adapt=2 / b_bias=0 / direct=1 / weightb=1 / open_gop=0 / weightp=2 / keyint=250 / keyint_min=23 / scenecut=40 / intra_refresh=0 / rc_lookahead=50 / rc=2pass / mbtree=1 / bitrate=9233 / ratetol=1.0 / qcomp=0.60 / qpmin=0 / qpmax=69 / qpstep=4 / cplxblur=20.0 / qblur=0.5 / ip_ratio=1.40 / aq=1:1.00
Language : Spanish
Default : Yes
Forced : No
Audio #1
ID : 2
Format : AC-3
Format/Info : Audio Coding 3
Mode extension : CM (complete main)
Format settings, Endianness : Big
Codec ID : A_AC3
Duration : 1h 27mn
Bit rate mode : Constant
Bit rate : 640 Kbps
Channel(s) : 6 channels
Channel positions : Front: L C R, Side: L R, LFE
Sampling rate : 48.0 KHz
Bit depth : 16 bits
Compression mode : Lossy
Stream size : 400 MiB (6%)
Title : Cam.Dinos.1080p.santorun1
Language : Spanish
Default : Yes
Forced : No
Audio #2
ID : 3
Format : DTS
Format/Info : Digital Theater Systems
Mode : 16
Format settings, Endianness : Big
Codec ID : A_DTS
Duration : 1h 27mn
Bit rate mode : Constant
Bit rate : 1 509 Kbps
Channel(s) : 6 channels
Channel positions : Front: L C R, Side: L R, LFE
Sampling rate : 48.0 KHz
Bit depth : 24 bits
Compression mode : Lossy
Delay relative to video : 11ms
Stream size : 943 MiB (13%)
Title : Cam.Dinos.1080p.santorun1
Language : English
Default : No
Forced : No
Text #1
ID : 4
Format : UTF-8
Codec ID : S_TEXT/UTF8
Codec ID/Info : UTF-8 Plain Text
Language : Spanish
Default : Yes
Forced : No
Text #2
ID : 5
Format : UTF-8
Codec ID : S_TEXT/UTF8
Codec ID/Info : UTF-8 Plain Text
Language : Spanish
Default : No
Forced : No
Text #3
ID : 6
Format : UTF-8
Codec ID : S_TEXT/UTF8
Codec ID/Info : UTF-8 Plain Text
Title : English
Default : No
Forced : No
Text #4
ID : 7
Format : UTF-8
Codec ID : S_TEXT/UTF8
Codec ID/Info : UTF-8 Plain Text
Title : English SDH
Language : English
Default : No
Forced : No

CAPTURAS






DESCARGA
Caminando entre dinosaurios [1080p][Dual+Subs]
40 Puntos Score: 10/10
Visitas: 2355 Favoritos: 4
Ver los usuarios que votaron...
14 Comentarios Caminando entre dinosaurios [1080p][Dual+Subs]
gracias?   esta narrada en latino?  
ojo que no es la serie, sino la pel?
Amigo, me da error en la extracci?
ingles y que spanish? castellano o latino.  
Amigo, al final al descomprimir con Winrar ?
@Bmarce  que raro lo habras descargado bien bueno mira proba con arreglar fichero da?
@Bmarce ahhh no lo descomprimas con jdowloadeer sino con la ultima version de winrar 5
@roysito @HYAKIMARU Me equivoque y sube la de ingles y castellano apenas suba la latino la comparto aca
Lo que te dije m?
a mi me pasa lo mismo y e tenido que bajarlo con el mipony y ay si lo descomprime bien
Para dejar un comentario Registrate! o.. eres ya usuario? Accede!