A man Apart 1080p x265


Sean Vetter ( Vin Diesel  Pertenece a un equipo antinarcóticos de la DEA que lleva siete largos años esperando atrapar al poderoso jefe del cartel de baja California, Memo Lucero (Geno Silva) cuando por fin lo arrestan, irrumpen en la casa de Sean y matan a su esposa Stacy Vetter (Jacqueline Obradors), en un tiroteo en el que Sean queda herido y en coma un largo tiempo, cuando despierta del coma, es cuando Sean Vetter junto a su fiel amigo Demetrius Hicks (Larenz Tate) inicia una violenta venganza alejándose de la ley, buscando encontrar a los responsables de la muerte de su esposa y acabando con toda una red de comercio ilegal de drogas que opera en la frontera entre Estados Unidos y Mexico.

General
Complete name               : C:UsersJoelDownloadsPeliculasDos Locas en FugaSubtitulosAman.m4v
Format                      : MPEG-4
Format profile              : Base Media / Version 2
Codec ID                    : mp42
File size                   : 1.17 GiB
Duration                    : 1h 49mn
Overall bit rate mode       : Variable
Overall bit rate            : 1 532 Kbps
Movie name                  : A.Man.Apart.2003.1080p.BluRay.H264.AAC-RARBG
Writing application         : HandBrake 0.10.1 2015030800
Comment                     : A.Man.Apart.2003.1080p.BluRay.H264.AAC-RARBG

Video
ID                          : 1
Format                      : HEVC
Format/Info                 : High Efficiency Video Coding
Format profile              : [email protected]@Main
Codec ID                    : hev1
Codec ID/Info               : High Efficiency Video Coding
Duration                    : 1h 49mn
Bit rate                    : 1 377 Kbps
Width                       : 1 918 pixels
Height                      : 1 080 pixels
Display aspect ratio        : 16:9
Frame rate mode             : Constant
Frame rate                  : 24.000 fps
Color space                 : YUV
Chroma subsampling          : 4:2:0
Bit depth                   : 8 bits
Bits/(Pixel*Frame)          : 0.028
Stream size                 : 1.05 GiB (90%)
Writing library             : x265 1.5:[Windows][GCC 4.9.0][64 bit]
Encoding settings           : wpp / ctu=32 / tu-intra-depth=1 / tu-inter-depth=1 / me=0 / subme=0 / merange=25 / no-rect / no-amp / max-merge=2 / temporal-mvp / early-skip / no-fast-cbf / rdpenalty=0 / no-tskip / no-tskip-fast / strong-intra-smoothing / no-lossless / no-cu-lossless / no-constrained-intra / fast-intra / open-gop / interlace=0 / keyint=240 / min-keyint=24 / scenecut=0 / rc-lookahead=10 / bframes=4 / bframe-bias=0 / b-adapt=0 / ref=1 / no-weightp / no-weightb / aq-mode=0 / aq-strength=0.00 / cbqpoffs=0 / crqpoffs=0 / rd=2 / psy-rd=0.30 / psy-rdoq=0.00 / no-signhide / lft / no-sao / no-sao-non-deblock / b-pyramid / no-cutree / rc=crf / crf=28.0 / qcomp=0.60 / qpmin=0 / qpmax=51 / qpstep=4 / ipratio=1.40 / pbratio=1.30
Color range                 : Limited
Color primaries             : BT.709
Transfer characteristics    : BT.709
Matrix coefficients         : BT.709

Audio
ID                          : 2
Format                      : MPEG Audio
Format version              : Version 1
Format profile              : Layer 3
Codec ID                    : 6B
Duration                    : 1h 49mn
Bit rate mode               : Variable
Bit rate                    : 150 Kbps
Channel(s)                  : 2 channels
Sampling rate               : 48.0 KHz
Compression mode            : Lossy
Stream size                 : 118 MiB (10%)
Title                       : Stereo / Stereo
Language                    : English


Screenshot:



Descarga:

Cita: Mostrar

Parte 7 si no funciona LOLABITS:

Cita: Mostrar


Password
Cita: Mostrar
A man Apart 1080p x265
0 Puntos Score: 0/10
Visitas: 1787 Favoritos: 1
4 Comentarios A man Apart 1080p x265
Un Cordial Saludo, la parte 7 no se puede descargar, podr?
ESto me sale con el archivo 7 El archivo no est?
Que raro, si a mi me descarga D:
@robert20m ya subi el 7mo a 4shared, actualizado est?
Para dejar un comentario Registrate! o.. eres ya usuario? Accede!