Los caballeros de Kodai-LAT/JAP-1a Temp-COMPLETA!!

Hola!

Mi primer post, y dado que esta "anime/caricatura 

me gusto mucho en su momento, y no la pude encontrar hasta que aquí mismo hicieron un postsobre la misma, pero solo hubo promesas y no subió mas que el primer capitulo, espere como ttodos pacientemente pero jamas llego nada mas que un capitulo, la busque y aquí se las traigo

Esta en audio DUAL Lat/Jap, personalmente creo que esta serie vale mucho la pena por el doblaje que saliendose del contexto original pusieron mucho de su cosecha los artistas de doblaje

Sin mas, les dejo algunas capturas y la ire subiendo, para que no crean que es igual que el otro usuario, les dejo 10 capítulos, son 45 de la 1a temporada, y los ire subiendo esta semana

Cualquier cosa por favor avísenme

Saludos!

" />

Informacion de el archivo(s)



Format                         : Matroska
Format version                 : Version 4 / Version 2
File size                      : 225 MiB
Duration                       : 22mn 57s
Overall bit rate mode          : Variable
Overall bit rate               : 1 369 Kbps
Encoded date                   : UTC 2015-01-15 00:54:38
Writing application            : mkvmerge v6.8.0 ('Theme for Great Cities') 32bit built on Mar  2 2014 21:27:07
Writing library                : libebml v1.3.0 + libmatroska v1.4.1

Video
ID                             : 1
Format                         : MPEG-4 Visual
Format settings, BVOP          : Yes
Format settings, QPel          : No
Format settings, GMC           : No warppoints
Format settings, Matrix        : Default (H.263)
Codec ID                       : V_MS/VFW/FOURCC / DX50
Codec ID/Hint                  : DivX 5
Duration                       : 22mn 57s
Bit rate                       : 989 Kbps
Width                          : 640 pixels
Height                         : 480 pixels
Display aspect ratio           : 4:3
Frame rate mode                : Constant
Frame rate                     : 23.976 fps
Color space                    : YUV
Chroma subsampling             : 4:2:0
Bit depth                      : 8 bits
Scan type                      : Progressive
Compression mode               : Lossy
Bits/(Pixel*Frame)             : 0.134
Stream size                    : 162 MiB (72%)
Writing library                : DivX 5.0.2 (UTC 2002-05-16)
Default                        : Yes
Forced                         : No

Audio #1
ID                             : 2
Format                         : AC-3
Format/Info                    : Audio Coding 3
Mode extension                 : CM (complete main)
Format settings, Endianness    : Big
Codec ID                       : A_AC3
Duration                       : 22mn 57s
Bit rate mode                  : Constant
Bit rate                       : 224 Kbps
Channel count                  : 2 channels
Channel positions              : Front: L R
Sampling rate                  : 48.0 KHz
Bit depth                      : 16 bits
Compression mode               : Lossy
Stream size                    : 36.8 MiB (16%)
Title                          : LATINO
Language                       : Spanish
Default                        : Yes
Forced                         : No

Audio #2
ID                             : 3
Format                         : MPEG Audio
Format version                 : Version 1
Format profile                 : Layer 3
Codec ID                       : A_MPEG/L3
Codec ID/Hint                  : MP3
Duration                       : 22mn 52s
Bit rate mode                  : Variable
Bit rate                       : 128 Kbps
Channel count                  : 1 channel
Sampling rate                  : 48.0 KHz
Compression mode               : Lossy
Stream size                    : 20.9 MiB (9%)
Title                          : JAPONES
Writing library                : LAME3.93a
Encoding settings              : -m m -V 4 -q 2 -lowpass 17.5 --abr 128
Language                       : Japanese
Default                        : No
Forced                         : No




SIN PASS


ACTUALIZACIÓN


Están arriba los 45 capítulos de la primera temporada

SALUDOS!!!!
Los caballeros de Kodai-LAT/JAP-1a Temp-COMPLETA!!
60 Puntos Score: 10/10
Visitas: 2616 Favoritos: 5
Ver los usuarios que votaron...
26 Comentarios Los caballeros de Kodai-LAT/JAP-1a Temp-COMPLETA!!
@marco007 Hola

Gracias por pasar, tengo la primera temporada en dual, la estoy subiendo, ahora.
No te prometo la segunda temporada, auqnue se que existe y que solo esta doblada el ingles, pero la primera si

Saludos!!!
subi la segunda buen post  
@shtrth Si la encuentro, con gusto
excelente, tambi?
@rickyreyne Hola, gracias por pasar pero no paso enlaces por mp, intenta con Jdownloader.

Saludos!
Excelente van mis 10
Muchas gracias capo te pasaste!  
+10 al rato
Seguro q no hay 2 Temp en Latino???  
Gracias!!! La verdad caeria bien en audio solo latino y ligero para ver en el camino


Los CREDITOS TOTALES de este proyecto en audio dual son de Team Kurozaki, Audios: Luisnadja & Takamoto
y Sincronizacion con Videos RAW Japoneses: Luisnadja
@nekio bueno, nunca dije que yo los habia hecho, dije que los encontre.
@josewalles de nada, si, lo podria recodificar y quirtarle el audio japones, pero realmente pesan poco los capitulos, para lo que hay el dia de hoy.
@kenijag de nada, a ti por pasar.
@pantyhouse
Lo s?
@Feisbulin gracias, pero con el gracias o maximo unos puntos me conformo.
Disfrutalo
Oye muchas gracias esta serie me trae muchos buenos recuerdos  
@ocpnismo De nada, gracias a ti por pasar.
Grandioso, solo vi como 3 capitulos en latino cuando salio en el canal 7, no pense que la hubieran acabado, hay te van los puntos, llevo a?
@meyorsaga  Gracias por los puntos, vamos hasta el capitulo 23, yo no dejare de subirlos  hasta llegar a los 45.
Amigo desde el capitulo 33 hasta el 39 aparecen repetidos,y de nuevo gracias por el aporte,ah y son hasta el 40 o faltan mas? saludos.  
alguien me podr?
@kenijag enlaces revisados y corregidos, ya esta completa. Disfruta!

@jovanhell los links se agregan a Jdownloader, no se pasan links por privado ni directos.
excelente serie, gracias por el aporte, pero tengo el mismo problema, mipony no jala los links    ayuda xfis
Esta serie es divertidisima pero no cargan los enlace al jdownloader   por favor arreglalo
Gracias.
@pantyhouse estimado excelente aporte pero no cargan los enlaces a Jd  
Para dejar un comentario Registrate! o.. eres ya usuario? Accede!