Dos Locas En Fuga 1080p x265




Una estricta policía (Witherspoon) hace lo imposible para proteger a la viuda de un traficante de drogas (Vergara) de delincuentes y policías corruptos. Juntas, se embarcarán en una aventura por Texas que las hará enfrentarse con asesinos y farsantes.

Datos del video:

General
Complete name               : C:UsersJoelDownloadsPeliculasDos Locas en FugaSubtitulos2locas.mp4
Format                      : MPEG-4
Format profile              : Base Media / Version 2
Codec ID                    : mp42
File size                   : 558 MiB
Duration                    : 1h 27mn
Overall bit rate mode       : Variable
Overall bit rate            : 891 Kbps
Movie name                  : Hot Pursuit (2015) Dual 1080p [wWw.PelisMEGAHD.Org]
Writing application         : HandBrake 0.10.1 2015030800

Video
ID                          : 1
Format                      : HEVC
Format/Info                 : High Efficiency Video Coding
Format profile              : [email protected]@Main
Codec ID                    : hev1
Codec ID/Info               : High Efficiency Video Coding
Duration                    : 1h 27mn
Bit rate                    : 763 Kbps
Width                       : 1 920 pixels
Height                      : 800 pixels
Display aspect ratio        : 2.40:1
Frame rate mode             : Variable
Frame rate                  : 23.976 fps
Minimum frame rate          : 23.810 fps
Maximum frame rate          : 24.390 fps
Color space                 : YUV
Chroma subsampling          : 4:2:0
Bit depth                   : 8 bits
Bits/(Pixel*Frame)          : 0.021
Stream size                 : 478 MiB (86%)
Writing library             : x265 1.5:[Windows][GCC 4.9.0][64 bit]
Encoding settings           : wpp / ctu=32 / tu-intra-depth=1 / tu-inter-depth=1 / me=0 / subme=0 / merange=25 / no-rect / no-amp / max-merge=2 / temporal-mvp / early-skip / no-fast-cbf / rdpenalty=0 / no-tskip / no-tskip-fast / strong-intra-smoothing / no-lossless / no-cu-lossless / no-constrained-intra / fast-intra / open-gop / interlace=0 / keyint=240 / min-keyint=24 / scenecut=0 / rc-lookahead=10 / bframes=4 / bframe-bias=0 / b-adapt=0 / ref=1 / no-weightp / no-weightb / aq-mode=0 / aq-strength=0.00 / cbqpoffs=0 / crqpoffs=0 / rd=2 / psy-rd=0.30 / psy-rdoq=0.00 / no-signhide / lft / no-sao / no-sao-non-deblock / b-pyramid / no-cutree / rc=crf / crf=28.0 / qcomp=0.60 / qpmin=0 / qpmax=51 / qpstep=4 / ipratio=1.40 / pbratio=1.30
Color range                 : Limited
Color primaries             : BT.709
Transfer characteristics    : BT.709
Matrix coefficients         : BT.709

Audio
ID                          : 2
Format                      : MPEG Audio
Format version              : Version 1
Format profile              : Layer 3
Codec ID                    : 6B
Duration                    : 1h 27mn
Bit rate mode               : Variable
Bit rate                    : 121 Kbps
Channel(s)                  : 2 channels
Sampling rate               : 48.0 KHz
Compression mode            : Lossy
Stream size                 : 75.8 MiB (14%)
Title                       : Stereo / Stereo
Language                    : English

Text
ID                          : 3
Format                      : Timed Text
Muxing mode                 : sbtl
Codec ID                    : tx3g
Duration                    : 1h 22mn
Bit rate mode               : Variable
Bit rate                    : 88 bps
Stream size                 : 53.4 KiB (0%)
Language                    : Spanish

Screenshots:

Descarga:



Password:

Cita: Mostrar



Todos tienen archivo de recuperacion.

Dos Locas En Fuga 1080p x265
10 Puntos Score: 10/10
Visitas: 1802 Favoritos: 3
Ver los usuarios que votaron...
6 Comentarios Dos Locas En Fuga 1080p x265
Gracias por el aporte.  Tendr?
Pide la parte 6 que no esta una perdida de tiempo al pedo
cuando subes la parte 6 ???????? te lo agradeceria
La parte 6 please!
@bitmike @bayola @KarmaSu @jucaespo ahora veo que falto esa parte, enseguida subo
Para dejar un comentario Registrate! o.. eres ya usuario? Accede!