Super 8 (2011) 720p TS READNFO XViD ? IMAGiNE

Super 8 (2011) 720p TS READNFO XViD ? IMAGiNE




Sinopsis:
En el verano de 1979, un grupo de jóvenes de un pequeño pueblo de Ohio son testigos de un choque de trenes catastrófico mientras rodaban una película en super 8. Cuando comienzan una serie de desapariciones irregulares y eventos inexplicables, los chicos sospechan que no fue un accidente y el jefe de policía intentará descubrir la verdad.

************************************************************************************************                   
                  Super 8 2011 720p TS READNFO XViD - IMAGiNE
************************************************************************************************

Ripper ...........: IMAGiNE                        IMDB Rating.......: 8.1/10                  
Video Codec.......: XVID                         Release Date......: 13/06/11
Audio Codec.......: MP3                          Theatre Date......: 10/06/11
Audio Bitrate.....: 128                          Runtime.......: 1h 41mn
Subtitles.........: NIL                          Language..........: ENGLISH
Resolution......: 1280 x 544                       IMDb URL..........: http://www.imdb.com/title/tt1650062/


DETAILS:

Video
ID                   : 0
Format                 : MPEG-4 Visual
Format profile             : Advanced [email protected]
Format settings, BVOP        : 2
Format settings, QPel        : No
Format settings, GMC         : No warppoints
Format settings, Matrix      : Default (MPEG)
Muxing mode              : Packed bitstream
Codec ID               : XVID
Codec ID/Hint            : XviD
Duration               : 1h 41mn
Bit rate               : 3 190 Kbps
Width                  : 1 280 pixels
Height                 : 544 pixels
Display aspect ratio         : 2.35:1
Frame rate               : 23.976 fps
Color space              : YUV
Chroma subsampling         : 4:2:0
Bit depth                : 8 bits
Scan type                : Progressive
Compression mode           : Lossy
Bits/(Pixel*Frame)         : 0.191
Stream size              : 2.27 GiB (96%)
Writing library            : XviD 61

Audio
ID                   : 1
Format                 : MPEG Audio
Format version             : Version 2
Format profile             : Layer 3
Mode                   : Joint stereo
Mode extension             : MS Stereo
Codec ID               : 55
Codec ID/Hint            : MP3
Duration               : 1h 41mn
Bit rate mode            : Constant
Bit rate               : 128 Kbps
Channel(s)               : 2 channels
Sampling rate            : 44.1 KHz
Compression mode           : Lossy
Stream size              : 93.3 MiB (4%)
Alignment                : Split accross interleaves
Interleave, duration         : 42 ms (1.00 video frame)
Writing library            : LAME3.98r







i-max.vn
Super 8 (2011) 720p TS READNFO XViD ? IMAGiNE
0 Puntos Score: 0/10
Visitas: 2424 Favoritos: 2
0 Comentarios Super 8 (2011) 720p TS READNFO XViD ? IMAGiNE
Este post no tiene comentarios. Sea el primero!
Para dejar un comentario Registrate! o.. eres ya usuario? Accede!