Little boy [2015][HDRIP][MEGA][Sub-español]


Sinopsis:
Años 40. En un pequeño pueblo de EEUU vive un niño de 7 años que padece problemas de desarrollo. Cuando su padre, casi su único amigo, se marcha al frente a combatier en la Segunda Guerra Mundial, el chico tendrá que enfrentarse no sólo a la crueldad de sus compañeros de clase, sino también a la de sus vecinos.
Ficha Técnica:
Título original: Little Boy
Otros Titulos: El Gran Pequeño
Año: 2015
Duración: 100 min.
País: México
Director: Alejandro Monteverde
Guión: Alejandro Monteverde, Pepe Portillo
Música: Stephan Altman, Mark Foster
Fotografía: Andrew Cadelago
Reparto: Jakob Salvati, Emily Watson, Kevin James, Tom Wilkinson, Cary-Hiroyuki Tagawa, Eduardo Verástegui, Ben Chaplin, David Henrie, Michael Rapaport, Ted Levine, Abraham Benrubi, Ali Landry, Candice Azzara, Toby Huss, Kelly Greyson, Matthew Scott Miller, Mary Stein, Matthew J Cates
Productora: Coproducció México-EEUU; Santa Fé Films / Metanoia Films
Género: Drama. Bélico | Infancia. Años 40. II Guerra Mundial

MEDIAINFO


Format                      : AVI
Format/Info                 : Audio Video Interleave
File size                   : 1.36 GiB
Duration                    : 1h 46mn
Overall bit rate            : 1 828 Kbps
Writing library             : VirtualDub build 32593/release

Video
ID                          : 0
Format                      : MPEG-4 Visual
Format profile              : Advanced [email protected]
Format settings, BVOP       : 2
Format settings, QPel       : No
Format settings, GMC        : No warppoints
Format settings, Matrix     : Default (H.263)
Muxing mode                 : Packed bitstream
Codec ID                    : XVID
Codec ID/Hint               : XviD
Duration                    : 1h 46mn
Bit rate                    : 1 435 Kbps
Width                       : 720 pixels
Height                      : 304 pixels
Display aspect ratio        : 2.35:1
Frame rate                  : 23.976 fps
Color space                 : YUV
Chroma subsampling          : 4:2:0
Bit depth                   : 8 bits
Scan type                   : Progressive
Compression mode            : Lossy
Bits/(Pixel*Frame)          : 0.273
Stream size                 : 1.07 GiB (78%)
Writing library             : XviD 66

Audio
ID                          : 1
Format                      : AC-3
Format/Info                 : Audio Coding 3
Mode extension              : CM (complete main)
Format settings, Endianness : Big
Codec ID                    : 2000
Duration                    : 1h 46mn
Bit rate mode               : Constant
Bit rate                    : 384 Kbps
Channel(s)                  : 6 channels
Channel positions           : Front: L C R, Side: L R, LFE
Sampling rate               : 48.0 KHz
Compression mode            : Lossy
Stream size                 : 293 MiB (21%)
Alignment                   : Aligned on interleaves
Interleave, duration        : 42 ms (1.00 video frame)
Interleave, preload duratio : 512 ms

NOTA:  Aquí estan los subtitulos en español solo lo agregan con el reproductor VLC
http://www.subdivx.com/X6XNDM3ODQwX-little-boy-2015.htmlCaptura




Little boy [2015][HDRIP][MEGA][Sub-español]
0 Puntos Score: 0/10
Visitas: 3285 Favoritos: 3
7 Comentarios Little boy [2015][HDRIP][MEGA][Sub-español]
quien comparte el subtitulado en espa?
gracias, no tendras mas pelis peruanas???
@cris_smith, HOLA Ah?
gracias amigo, mi novia la queria ver, ahora si a disfrutar.
Hermosa pelicula, se ve de diez. Gracias!!
Buen dia alguien me puede compartir por mega directamente no tengo manera de anexarlas con jdownloader
Gracias!
Para dejar un comentario Registrate! o.. eres ya usuario? Accede!