Fright Night (1985) Dual - 1080p - 4Gb - Mega





Hola amigos de Identi... En esta ocasión traigo un clásico del cine de Terror, una película que sé, marcó mucho a algunos en nuestra infancia y lo mejor de todo en audio dual (Español Latino e Inglés) con una calidad única... 


Descargué una versión de 11 Gb pero la dejé con un peso de 4Gb sin que perdiera calidad, se que aun e pesada pero por este clásico lo vale...




Espero que la disfruten.... 





1985 - FRIGHT NIGHT

O

NOCHE DE MIEDO









SINOPSIS




Fright Night (La hora del espanto en México y ArgentinaNoche de miedo en España y La noche del espanto en Venezuela), es una película estadounidense de terror-comedia de 1985, dirigida por Tom Holland.                                                                                                                                                  
                                                                                                                                (Tomado de Wikipedia)






MEDIA INFO


Esa es la ficha técnica sacada de la película, se informa formato, peso, calidad, duración, Bit rate y demás datos que son necesarios para conocer la calidad real de la misma, para aquellos siempre solicitan datos puntuales:



General
Format                                   : Matroska
Format version                           : Version 4 / Version 2
File size                                : 4.12 GiB
Duration                                 : 1h 46mn
Overall bit rate                         : 5 543 Kbps
Encoded date                             : UTC 2015-06-14 04:49:06
Writing application                      : mkvmerge v7.7.0 ('Six Voices') 64bit built on Feb 28 2015 23:39:33
Writing library                          : Lavf54.63.104
_STATISTICS_WRITING_APP                  : mkvmerge v7.7.0 ('Six Voices') 64bit built on Feb 28 2015 23:39:33
_STATISTICS_WRITING_DATE_UTC             : 2015-06-15 02:18:56
_STATISTICS_TAGS                         : BPS DURATION NUMBER_OF_FRAMES NUMBER_OF_BYTES
DURATION                                 : 01:46:29.400000000
NUMBER_OF_FRAMES                         : 266225
NUMBER_OF_BYTES                          : 255576000

Video
ID                                       : 1
Format                                   : AVC
Format/Info                              : Advanced Video Codec
Format profile                           : [email protected]
Format settings, CABAC                   : Yes
Format settings, ReFrames                : 1 frame
Codec ID                                 : V_MPEG4/ISO/AVC
Duration                                 : 1h 46mn
Bit rate                                 : 5 000 Kbps
Width                                    : 1 920 pixels
Height                                   : 800 pixels
Display aspect ratio                     : 2.40:1
Frame rate mode                          : Constant
Frame rate                               : 23.976 fps
Color space                              : YUV
Chroma subsampling                       : 4:2:0
Bit depth                                : 8 bits
Scan type                                : Progressive
Bits/(Pixel*Frame)                       : 0.136
Stream size                              : 3.57 GiB (86%)
Writing library                          : x264 core 129
Default                                  : Yes
Forced                                   : No
_STATISTICS_WRITING_APP                  : mkvmerge v7.7.0 ('Six Voices') 64bit built on Feb 28 2015 23:39:33
_STATISTICS_WRITING_DATE_UTC             : 2015-06-15 02:18:56
_STATISTICS_TAGS                         : BPS DURATION NUMBER_OF_FRAMES NUMBER_OF_BYTES
DURATION                                 : 01:46:31.344000000
NUMBER_OF_FRAMES                         : 153239
NUMBER_OF_BYTES                          : 3915244652

Audio #1
ID                                       : 2
Format                                   : MPEG Audio
Format version                           : Version 1
Format profile                           : Layer 3
Mode                                     : Joint stereo
Mode extension                           : MS Stereo
Codec ID                                 : A_MPEG/L3
Codec ID/Hint                            : MP3
Duration                                 : 1h 46mn
Bit rate mode                            : Constant
Bit rate                                 : 320 Kbps
Channel count                            : 2 channels
Sampling rate                            : 48.0 KHz
Compression mode                         : Lossy
Stream size                              : 244 MiB (6%)
Title                                    : Español Latino
Writing library                          : LAME3.99.5
Language                                 : Spanish
Default                                  : Yes
Forced                                   : No

Audio #2
ID                                       : 3
Format                                   : MPEG Audio
Format version                           : Version 1
Format profile                           : Layer 3
Mode                                     : Joint stereo
Mode extension                           : MS Stereo
Codec ID                                 : A_MPEG/L3
Codec ID/Hint                            : MP3
Duration                                 : 1h 46mn
Bit rate mode                            : Constant
Bit rate                                 : 320 Kbps
Channel count                            : 2 channels
Sampling rate                            : 48.0 KHz
Compression mode                         : Lossy
Stream size                              : 244 MiB (6%)
Title                                    : Inglés
Writing library                          : LAME3.99.5
Language                                 : English
Default                                  : No
Forced                                   : No

Text
ID                                       : 4
Format                                   : UTF-8
Codec ID                                 : S_TEXT/UTF8
Codec ID/Info                            : UTF-8 Plain Text
Title                                    : Inglés
Language                                 : English
Default                                  : No
Forced                                   : No

Menu
00:00:00.000                             : en:00:00:00.000
00:10:00.600                             : en:00:10:00.600
00:20:00.658                             : en:00:20:00.658
00:30:01.383                             : en:00:30:01.383
00:40:02.609                             : en:00:40:02.609
00:50:02.416                             : en:00:50:02.416
01:00:03.767                             : en:01:00:03.767
01:10:04.117                             : en:01:10:04.117
01:20:04.383                             : en:01:20:04.383
01:30:04.733                             : en:01:30:04.733
01:40:06.209                             : en:01:40:06.209





CAPTURAS


Quiero aclarar que todas las capturas son propias, sacadas directamente de las películas, para que haya mejor claridad sobre el material a descargar
















LINK DE DESCARGA



Descarga con el JDownloader.




1985 - FRIGHT NIGHT O NOCHE DE MIEDO









                            CONTRASEÑA

                               TEKKEN007








Para mi, mas que los puntos, lo 


importante son sus comentarios 


para poder mejorar, con un 


gracias es suficiente..













Fright Night (1985) Dual - 1080p - 4Gb - Mega
43 Puntos Score: 8.6/10
Visitas: 2652 Favoritos: 6
Ver los usuarios que votaron...
18 Comentarios Fright Night (1985) Dual - 1080p - 4Gb - Mega
Excelente aporte gracias es una cl?
excelente aporte amigo,gracias por compartir...  
GRACIAS..... Unas de Mis Favoritas y En Exelente Calidad......
GRACIAS CA RNAL SUPER CLA SICO DE LOS 80S DE CASUALIDAD TENDRAS LA SEGUNDA PARTE ?
Q Buena pelicula muchas gracias por tus aportes por casualidad no tendras la saga de aullidos
Muy buena! Mejor, mucho mejor que la remake de Colin Farrell de hace unos a?
Excelente aporte, un gran esfuerzo!!!
AMIGO ME SALE COMO DA?
Un verdadero Cl?
el primer archivo man tekken 007 me sale da?
sale carnal gracias se agradece esperare haber si la consigues
Muchas gracias por este verdadero cl?
Muchas Gracias Amigo!!!!                  
Para dejar un comentario Registrate! o.. eres ya usuario? Accede!