Saga Austin Powers - Dual - 1080p - Mega





Hola amigos de Identi... En esta ocasión traigo una trilogía que desde mi punto de vista es muy divertida.. Austin Powers!!!!


Conseguir el audio latino de estas películas fue un poco complicado, las películas BRRIP las descargué por Torrent y multiplexé.  


Con la primera película Autin Powers Agente Internacional del Misterio, fue casi imposible cuadrar el audio, ya que el DVDRip del que la saqué, tiene una duración distinta al BRRIP, llegando al punto en que algunas escenas son totalmente distintas, tuve que cortar el audio e intentar cuadrarlo lo mejor posible, salvo una escena donde el video no concuerda con el audio pero la idea se mantiene.. jajajaja... para este caso subí la BRRIP y la DVDRIP por si alguien se quiere aventurar a sincronizar el audio y dejarlo como tiene  que ser.   


Las demás películas no tuvieron ningún inconveniente....



Espero que la disfruten.... 













SINOPSIS




Sir Austin Danger PowersKBE, es un espía británico creado e interpretado por Mike Myers, es el protagonista de la trilogía de películas: Austin Powers: International Man of MysteryAustin Powers: The Spy who Shagged me y Austin Powers in Goldmember.

(Tomado de Wikipedia)


MEDIA INFO


Esa es la ficha técnica sacada de la película, se informa formato, peso, calidad, duración, Bit rate y demás datos que son necesarios para conocer la calidad real de la misma, para aquellos siempre solicitan datos puntuales:


AUSTIN POWERS 1 - BRRIP


General
Format                                   : Matroska
Format version                           : Version 4 / Version 2
File size                                : 1.69 GiB
Duration                                 : 1h 29mn
Overall bit rate                         : 2 708 Kbps
Encoded date                             : UTC 2015-06-14 15:32:28
Writing application                      : mkvmerge v7.9.0 ('Birds') 64bit
Writing library                          : libebml v1.3.1 + libmatroska v1.4.2
_STATISTICS_WRITING_APP                  : mkvmerge v7.9.0 ('Birds') 64bit
_STATISTICS_WRITING_DATE_UTC             : 2015-06-14 15:32:28
_STATISTICS_TAGS                         : BPS DURATION NUMBER_OF_FRAMES NUMBER_OF_BYTES
DURATION                                 : 01:28:46.086000000
NUMBER_OF_FRAMES                         : 1734
NUMBER_OF_BYTES                          : 46504

Video
ID                                       : 1
Format                                   : AVC
Format/Info                              : Advanced Video Codec
Format profile                           : [email protected]
Format settings, CABAC                   : Yes
Format settings, ReFrames                : 5 frames
Codec ID                                 : V_MPEG4/ISO/AVC
Duration                                 : 1h 29mn
Nominal bit rate                         : 2 292 Kbps
Width                                    : 1 920 pixels
Height                                   : 816 pixels
Display aspect ratio                     : 2.35:1
Frame rate mode                          : Constant
Frame rate                               : 23.976 fps
Color space                              : YUV
Chroma subsampling                       : 4:2:0
Bit depth                                : 8 bits
Scan type                                : Progressive
Bits/(Pixel*Frame)                       : 0.061
Writing library                          : x264 core 130 r2273 b3065e6
Default                                  : Yes
Forced                                   : No

Audio #1
ID                                       : 2
Format                                   : MPEG Audio
Format version                           : Version 1
Format profile                           : Layer 3
Mode                                     : Joint stereo
Mode extension                           : MS Stereo
Codec ID                                 : A_MPEG/L3
Codec ID/Hint                            : MP3
Duration                                 : 1h 29mn
Bit rate mode                            : Constant
Bit rate                                 : 320 Kbps
Channel count                            : 2 channels
Sampling rate                            : 48.0 KHz
Compression mode                         : Lossy
Stream size                              : 205 MiB (12%)
Title                                    : Español Latino
Language                                 : Spanish
Default                                  : Yes
Forced                                   : No

Audio #2
ID                                       : 3
Format                                   : AAC
Format/Info                              : Advanced Audio Codec
Format profile                           : LC
Codec ID                                 : A_AAC
Duration                                 : 1h 29mn
Channel count                            : 2 channels
Channel positions                        : Front: L R
Sampling rate                            : 48.0 KHz
Compression mode                         : Lossy
Title                                    : Inglés
Language                                 : English
Default                                  : No
Forced                                   : No

Text #1
ID                                       : 4
Format                                   : UTF-8
Codec ID                                 : S_TEXT/UTF8
Codec ID/Info                            : UTF-8 Plain Text
Title                                    : Español
Language                                 : Spanish
Default                                  : No
Forced                                   : No

Text #2
ID                                       : 5
Format                                   : UTF-8
Codec ID                                 : S_TEXT/UTF8
Codec ID/Info                            : UTF-8 Plain Text
Title                                    : Inglés
Language                                 : English
Default                                  : No
Forced                                   : No

AUSTIN POWERS 1 - DVDRIP


General
Format                                   : AVI
Format/Info                              : Audio Video Interleave
File size                                : 739 MiB
Duration                                 : 1h 34mn
Overall bit rate                         : 1 091 Kbps
Writing application                      : VirtualDubMod 1.5.4.1 (build 2178/release)
Writing library                          : VirtualDubMod build 2178/release

Video
ID                                       : 0
Format                                   : MPEG-4 Visual
Format profile                           : Advanced [email protected]
Format settings, BVOP                    : 2
Format settings, QPel                    : No
Format settings, GMC                     : No warppoints
Format settings, Matrix                  : Default (MPEG)
Codec ID                                 : XVID
Codec ID/Hint                            : XviD
Duration                                 : 1h 34mn
Bit rate                                 : 890 Kbps
Width                                    : 640 pixels
Height                                   : 288 pixels
Display aspect ratio                     : 2.222
Frame rate                               : 23.976 fps
Original frame rate                      : 25.000 fps
Color space                              : YUV
Chroma subsampling                       : 4:2:0
Bit depth                                : 8 bits
Scan type                                : Progressive
Compression mode                         : Lossy
Bits/(Pixel*Frame)                       : 0.201
Stream size                              : 603 MiB (82%)
Writing library                          : XviD 1.1.2 (UTC 2006-11-01)

Audio
ID                                       : 1
Format                                   : AC-3
Format/Info                              : Audio Coding 3
Mode extension                           : CM (complete main)
Format settings, Endianness              : Big
Codec ID                                 : 2000
Duration                                 : 1h 34mn
Bit rate mode                            : Constant
Bit rate                                 : 192 Kbps
Channel count                            : 2 channels
Channel positions                        : Front: L R
Sampling rate                            : 48.0 KHz
Bit depth                                : 16 bits
Compression mode                         : Lossy
Stream size                              : 130 MiB (18%)
Alignment                                : Split accross interleaves
Interleave, duration                     : 42 ms (1.00 video frame)
Interleave, preload duration             : 500 ms




AUSTIN POWERS 2

General
Format                                   : Matroska
Format version                           : Version 4 / Version 2
File size                                : 1.71 GiB
Duration                                 : 1h 35mn
Overall bit rate                         : 2 570 Kbps
Encoded date                             : UTC 2015-05-23 03:35:16
Writing application                      : mkvmerge v7.7.0 ('Six Voices') 64bit built on Feb 28 2015 23:39:33
Writing library                          : libebml v1.3.1 + libmatroska v1.4.2
DURATION                                 : 01:33:44.383000000
NUMBER_OF_FRAMES                         : 1329
NUMBER_OF_BYTES                          : 41059
_STATISTICS_WRITING_APP                  : mkvmerge v7.7.0 ('Six Voices') 64bit built on Feb 28 2015 23:39:33
_STATISTICS_WRITING_DATE_UTC             : 2015-05-23 03:35:16
_STATISTICS_TAGS                         : BPS DURATION NUMBER_OF_FRAMES NUMBER_OF_BYTES

Video
ID                                       : 1
Format                                   : AVC
Format/Info                              : Advanced Video Codec
Format profile                           : [email protected]
Format settings, CABAC                   : Yes
Format settings, ReFrames                : 5 frames
Codec ID                                 : V_MPEG4/ISO/AVC
Duration                                 : 1h 35mn
Nominal bit rate                         : 2 154 Kbps
Width                                    : 1 920 pixels
Height                                   : 816 pixels
Display aspect ratio                     : 2.35:1
Frame rate mode                          : Constant
Frame rate                               : 23.976 fps
Color space                              : YUV
Chroma subsampling                       : 4:2:0
Bit depth                                : 8 bits
Scan type                                : Progressive
Bits/(Pixel*Frame)                       : 0.057
Writing library                          : x264 core 130 r2273 b3065e6
Default                                  : Yes
Forced                                   : No

Audio #1
ID                                       : 2
Format                                   : AAC
Format/Info                              : Advanced Audio Codec
Format profile                           : LC
Codec ID                                 : A_AAC
Duration                                 : 1h 35mn
Channel count                            : 2 channels
Channel positions                        : Front: L R
Sampling rate                            : 48.0 KHz
Compression mode                         : Lossy
Default                                  : No
Forced                                   : No

Audio #2
ID                                       : 3
Format                                   : AC-3
Format/Info                              : Audio Coding 3
Mode extension                           : CM (complete main)
Format settings, Endianness              : Big
Codec ID                                 : A_AC3
Duration                                 : 1h 35mn
Bit rate mode                            : Constant
Bit rate                                 : 320 Kbps
Channel count                            : 2 channels
Channel positions                        : Front: L R
Sampling rate                            : 48.0 KHz
Bit depth                                : 16 bits
Compression mode                         : Lossy
Delay relative to video                  : 1s 200ms
Stream size                              : 218 MiB (12%)
Default                                  : Yes
Forced                                   : No

Text
ID                                       : 4
Format                                   : UTF-8
Codec ID                                 : S_TEXT/UTF8
Codec ID/Info                            : UTF-8 Plain Text
Default                                  : Yes
Forced                                   : No



AUSTIN POWERS 3

General
Format                                   : Matroska
Format version                           : Version 4 / Version 2
File size                                : 1.62 GiB
Duration                                 : 1h 34mn
Overall bit rate                         : 2 454 Kbps
Encoded date                             : UTC 2015-05-19 03:00:47
Writing application                      : mkvmerge v7.7.0 ('Six Voices') 64bit built on Feb 28 2015 23:39:33
Writing library                          : libebml v1.3.1 + libmatroska v1.4.2
DURATION                                 : 01:27:09.390000000
NUMBER_OF_FRAMES                         : 1293
NUMBER_OF_BYTES                          : 41725
_STATISTICS_WRITING_APP                  : mkvmerge v7.7.0 ('Six Voices') 64bit built on Feb 28 2015 23:39:33
_STATISTICS_WRITING_DATE_UTC             : 2015-05-19 03:00:47
_STATISTICS_TAGS                         : BPS DURATION NUMBER_OF_FRAMES NUMBER_OF_BYTES

Video
ID                                       : 1
Format                                   : AVC
Format/Info                              : Advanced Video Codec
Format profile                           : [email protected]
Format settings, CABAC                   : Yes
Format settings, ReFrames                : 5 frames
Codec ID                                 : V_MPEG4/ISO/AVC
Duration                                 : 1h 34mn
Nominal bit rate                         : 2 167 Kbps
Width                                    : 1 920 pixels
Height                                   : 816 pixels
Display aspect ratio                     : 2.35:1
Frame rate mode                          : Constant
Frame rate                               : 23.976 fps
Color space                              : YUV
Chroma subsampling                       : 4:2:0
Bit depth                                : 8 bits
Scan type                                : Progressive
Bits/(Pixel*Frame)                       : 0.058
Writing library                          : x264 core 130 r2273 b3065e6
Default                                  : Yes
Forced                                   : No

Audio #1
ID                                       : 2
Format                                   : AC-3
Format/Info                              : Audio Coding 3
Mode extension                           : CM (complete main)
Format settings, Endianness              : Big
Codec ID                                 : A_AC3
Duration                                 : 1h 34mn
Bit rate mode                            : Constant
Bit rate                                 : 192 Kbps
Channel count                            : 2 channels
Channel positions                        : Front: L R
Sampling rate                            : 48.0 KHz
Bit depth                                : 16 bits
Compression mode                         : Lossy
Delay relative to video                  : 2s 0ms
Stream size                              : 130 MiB (8%)
Title                                    : Español Latino
Language                                 : Spanish
Default                                  : Yes
Forced                                   : No

Audio #2
ID                                       : 3
Format                                   : AAC
Format/Info                              : Advanced Audio Codec
Format profile                           : LC
Codec ID                                 : A_AAC
Duration                                 : 1h 34mn
Channel count                            : 2 channels
Channel positions                        : Front: L R
Sampling rate                            : 48.0 KHz
Compression mode                         : Lossy
Title                                    : Inglés
Language                                 : English
Default                                  : No
Forced                                   : No

Text
ID                                       : 4
Format                                   : UTF-8
Codec ID                                 : S_TEXT/UTF8
Codec ID/Info                            : UTF-8 Plain Text
Title                                    : Inglés
Language                                 : English
Default                                  : No
Forced                                   : No





CAPTURAS


Quiero aclarar que todas las capturas son propias, sacadas directamente de las películas, para que haya mejor claridad sobre el material a descargar, dejo una por película para no hacer tan largo el post.


















LINK DE DESCARGA


Descarga con el JDownloader, esperando que esta vez duren los link.




AUSTIN POWERS 1 - BRRIP








AUSTIN POWERS 1 - DVDRIP









AUSTIN POWERS 2








AUSTIN POWERS 3











CONTRASEÑA

TEKKEN007


Para mi, mas que los puntos, lo 


importante son sus comentarios 


para poder mejorar, con un 


gracias es suficiente..













Saga Austin Powers - Dual - 1080p - Mega
114 Puntos Score: 9.5/10
Visitas: 4153 Favoritos: 12
Ver los usuarios que votaron...
39 Comentarios Saga Austin Powers - Dual - 1080p - Mega
Tremendo aporte, Muchas Gracias por tomarte el trabajo de compartirlo !    
Exelente, hace mucho q buscaba estas pel?
Hola, Gracias por el aporte las tenia en dvdrip horrendo, perdona que te pregunte por ah?
me dice q la contrase?
Gracias por el aporte  
Gracias por compartir , siempre excelentes post!!
Gracias Bajando antes no las vi asi que buen momento y en muy buena calidad Gracias!
y cual es la contrase?
bajando, las ver?
@ulisesrf Sacale el espacio entre la N y 007.
Debe quedar TEKKEN007.
Salu2      
MALANDRIN!  la contrase?
@DAMIAN32 Todas son 1080p, la primera la publiqu?
La Verdad no sabia que eran tres pel?
uuuuuuuu que grande, gracias viejo!!  
Muchas gracias  
Excelente aporte amigo   De ni?
Super aporte se agradece bro  
Descargando! Muchas gracias estimado.  
Puede ser que est?
Porfavor la contrase?
Gran Saga, se agradece la calidad de siempre compadre, ojala mas adelante puedas con la Saga X-Men.
Saludos.
muchas gracias+10
Sos de lo mejor
excelente aporte me encantas estas pel?
Aleluyah ! me cargaron los links !
ya pude bajarlas excelentemente aporte  
No te comento ni "J", tampoco te digo GRACIAS  
muchas gracias carnal
y al bajarles tanto el peso a estos BDrip no pierden calidad de imagen?
Gracias, Buen aporte
 
Hermano, descargu?
Descargadas todas sin ning?
podrias volver a subir la 1 y 2  ??  links caidos , no me agrega al jd
Para dejar un comentario Registrate! o.. eres ya usuario? Accede!