Oops.. Este post tiene los enlaces eliminados!

Identi revisa las denuncias de los usuarios en busca de enlaces eliminados que no dejan descargar los archivos, este mensaje te informa que este post que estas viendo tiene los enlaces eliminados.

Usa el Buscador

Por favor, te recomendamos que uses el buscador para encontrar más alternativas.

New girl temporada 1 dual latino ingles completa

  • Categoría: Reciclaje
  • Publicado hace más de 1 año
New girl temporada 1 720p dual latino ingles, 24 de 24, audios en latino nuevos y completos exclusivo




Aqui les dejo la temporada 1 completa, los audios en latino son totalmente nuevos y estan completos al 100

New Girl es una serie de televisión estadounidense que se estrenó en Fox  el 20 de septiembre de 2011.2 Está protagonizada por Zooey Deschanel, Jake Johnson, Max Greenfield, Lamorne Morris, y Hannah Simone. El 28 de septiembre de 2011, después de emitirse los dos primeros episodios, Fox encargó el rodaje de 11 episodios adicionales a los 13 que inicialmente estaban planeados, con lo que la primera temporada quedó con 24 episodios.3

La serie comienza con Jessica «Jess» Day (interpretada por Zooey Deschanel), una mujer peculiar y alegre de casi treinta años que da clases en una escuela primaria local de Los Ángeles. Jess comienza a buscar un nuevo lugar para vivir después de descubrir que su novio la engaña. Al ver un anuncio de un nuevo compañero de cuarto en Craigslist, se muda con tres jóvenes: Nick, Schmidt y Coach. Muy poco después de su traslado, Coach se va, y es sustituido por Winston, otro joven que había vivido en el apartamento con Nick y Schmidt.

Capturas









Video
ID                          : 1
Format                      : AVC
Format/Info                 : Advanced Video Codec
Format profile              : [email protected]
Format settings, CABAC      : No
Format settings, ReFrames   : 2 frames
Codec ID                    : V_MPEG4/ISO/AVC
Duration                    : 24mn 2s
Bit rate                    : 3 921 Kbps
Width                       : 1 280 pixels
Height                      : 720 pixels
Display aspect ratio        : 16:9
Frame rate mode             : Constant
Frame rate                  : 23.976 fps
Color space                 : YUV
Chroma subsampling          : 4:2:0
Bit depth                   : 8 bits
Scan type                   : Progressive
Bits/(Pixel*Frame)          : 0.177
Stream size                 : 674 MiB (81%)
Title                       : New Girl - Season 1, Episode 1: Pilot
Language                    : English
Default                     : Yes
Forced                      : No
Color primaries             : BT.709
Transfer characteristics    : BT.709
Matrix coefficients         : BT.709
Color range                 : Limited

Audio #1
ID                          : 2
Format                      : AC-3
Format/Info                 : Audio Coding 3
Mode extension              : CM (complete main)
Format settings, Endianness : Big
Codec ID                    : A_AC3
Duration                    : 24mn 2s
Bit rate mode               : Constant
Bit rate                    : 448 Kbps
Channel(s)                  : 6 channels
Channel positions           : Front: L C R, Side: L R, LFE
Sampling rate               : 48.0 KHz
Bit depth                   : 16 bits
Compression mode            : Lossy
Stream size                 : 77.0 MiB (9%)
Title                       : LATINO EXCLUSIVO JUANW200
Language                    : Latin
Default                     : Yes
Forced                      : Yes

Audio #2
ID                          : 3
Format                      : AC-3
Format/Info                 : Audio Coding 3
Mode extension              : CM (complete main)
Format settings, Endianness : Big
Codec ID                    : A_AC3
Duration                    : 24mn 2s
Bit rate mode               : Constant
Bit rate                    : 384 Kbps
Channel(s)                  : 6 channels
Channel positions           : Front: L C R, Side: L R, LFE
Sampling rate               : 48.0 KHz
Bit depth                   : 16 bits
Compression mode            : Lossy
Stream size                 : 66.0 MiB (8%)
Title                       : Dolby Digital 5.1 @ 384 kbps
Language                    : English
Default                     : No
Forced                      : No

Text
ID                          : 4
Format                      : UTF-8
Codec ID                    : S_TEXT/UTF8
Codec ID/Info               : UTF-8 Plain Text
Language                    : Spanish
Default                     : Yes
Forced                      : Yes


Capturado subido y sincronizado por juan w200, Recuerda si usas estos audios para otras versiones no olvides poner los creditos del uploader, Asi apoyas para seguir compartiendo

Si a alguien le interesan solo los audios puede perdirlos y los subo,

El torrent de la temporada 1 se llama asi, por si ya lo tienes,new.girl.s01.season.1.complete.720p.web.dl.dd5.1.h.264.nfhd,solo el capitulo 1 es diferente dura 24 minutos y se llama asi, New Girl S01E01 720p WEB-DL AAC2.0 H264-NFHD ,24mn 2s

Tamaño por capitulo 700 a 800 mb servidor mega

Si todo va bien proximante subire la temporada 2 en esta calidad
New girl temporada 1 dual latino ingles completa
68 Puntos Score: 9.7/10
Visitas: 2935 Favoritos: 6
Ver los usuarios que votaron...
31 Comentarios New girl temporada 1 dual latino ingles completa
excelente aporte  
@kuroski15 De nada gracias por pasar
no se pueden agregar los links =(
no agrega links
esperando la temporada 2. Gracias
  espero subas las 2da tempo jeje.. luego agrego los links,.. ahi t deje puntines
@brianmixers @sion6x ya les funciona, si no para abrir los links, pero igual tienen que pegarlos en jd o mi pony estan protegidos con este metodo de este post http://www.identi.li/index.php?topic=354262  por el navegador no funcionan,  @a_mowli @Glee17  gracias,ya estoy descargando la segunda temporada pero esta lento el torrent
Excelente aporte amigo   yo igual la estoy subiendo pero en una calidad mas baja, se agradece el esfuerzo de subir  
@juanw200  sabes que no puedo  hacer que mipony me agarre los links.... proble con los 3 navegadores mas conocidos y no pude...    ayuda
ya baje los primero 10 capitulos  de la primera temporada q habias subido la vez pasada en otro post
@brianmixers ahi esta copia y pega los links @Daniel_07  de nada
@juanw200 gracias master sos un idolo. justo que anoche termine de ver el capitulo 10 ahora a descargar los que faltan..  sos un idolo espero pronto subas las segunda temporada  y de nuevo muchas gracias por ser tan atento    
@brianmixers pronto la temporada 2 ya tengo 7 capitulos listos, solo necesito otra cuenta de mega
@juanw200 genial man... ya termine de ver toda la primer temporada esta tarde...  
Excelente trabajo.. Se agradece!
Esperando la segunda temporada man. excelente la callidad  sos un master  
muchas gracias por el aporte! espero que puedas subir la temporada 2, un saludo y +10  
Excelente aporte, amigo
Pero esta parte ya muri?
Los subtitulos los tenes???
Ufff... que tema.. ja y que versi?
+10

@juanw200 Gracias mi buen, eh bajado todos tus aportes de New Girl y su una temporada requer?
Cita KinSama: Mostrar
@KinSama error temporal siempre pasa
Cita juanw200: Mostrar
As?
para cuando la segunda temporada?
@Madara22x @KinSama @MoskaRulo @Mofazza @wisinnes @brianmixers @Glee17 @kuroski15   lo siento amigos por ahora no podre continuar con la temporada dos, hoy vence mi internet y no podre pagarlo este mes,tal vez dure varios meses sin internet hasta que tenga dinero,igual aqui llegan varias wifi tengo las claves pero estan muy debiles y para subir no sirven,si mejora mi situacion les aviso
@juanw200 Mal rollo mi estimado, espero pronto te alivianes y bueno, aun as?
Para dejar un comentario Registrate! o.. eres ya usuario? Accede!