Oops.. Este post tiene los enlaces eliminados!

Identi revisa las denuncias de los usuarios en busca de enlaces eliminados que no dejan descargar los archivos, este mensaje te informa que este post que estas viendo tiene los enlaces eliminados.

Usa el Buscador

Por favor, te recomendamos que uses el buscador para encontrar más alternativas.

New girl temp1 dual latino ingles 720p cap11 al 16

  • Categoría: Reciclaje
  • Publicado hace más de 1 año
New girl temporada 1 capitulos 11 al 16 dual latino ingles 720 web dl nuevos audios




Saludos, Anteriormente les comparti la temporada 1 en latino pero era grabada de la television y el audio tenia fallas y la calidad era algo mala,Bueno, ahora les empezare a compartir otra vez la temporada 1 en latino, pero esta vez es en 720p y con audios latinos nuevos de excelente calidad  completos al 100 y sin fallas,Nota solo el capitulo 1 lleva partes en ingles pero solo son 2 frases y tiene subtitulos para esas partes, lo que pasa es que el audio que yo tengo queda perfecto para la version hdtv pero no la pude encontrar limpia sin logos,Asi que mejor lo sincronize con otra version que dura 24 minutos por eso las partes en ingles,

New Girl es una serie de televisión estadounidense que se estrenó en Fox  el 20 de septiembre de 2011.2 Está protagonizada por Zooey Deschanel, Jake Johnson, Max Greenfield, Lamorne Morris, y Hannah Simone. El 28 de septiembre de 2011, después de emitirse los dos primeros episodios, Fox encargó el rodaje de 11 episodios adicionales a los 13 que inicialmente estaban planeados, con lo que la primera temporada quedó con 24 episodios.3

La serie comienza con Jessica «Jess» Day (interpretada por Zooey Deschanel), una mujer peculiar y alegre de casi treinta años que da clases en una escuela primaria local de Los Ángeles. Jess comienza a buscar un nuevo lugar para vivir después de descubrir que su novio la engaña. Al ver un anuncio de un nuevo compañero de cuarto en Craigslist, se muda con tres jóvenes: Nick, Schmidt y Coach. Muy poco después de su traslado, Coach se va, y es sustituido por Winston, otro joven que había vivido en el apartamento con Nick y Schmidt.
Capturas
 




Video
ID                             : 1
Format                         : AVC
Format/Info                    : Advanced Video Codec
Format profile                 : [email protected]
Format settings, CABAC         : No
Format settings, ReFrames      : 2 frames
Format settings, GOP           : N=1
Codec ID                       : V_MPEG4/ISO/AVC
Duration                       : 21mn 43s
Bit rate                       : 4 053 Kbps
Width                          : 1 280 pixels
Height                         : 720 pixels
Display aspect ratio           : 16:9
Frame rate mode                : Constant
Frame rate                     : 23.976 fps
Color space                    : YUV
Chroma subsampling             : 4:2:0
Bit depth                      : 8 bits
Scan type                      : Progressive
Bits/(Pixel*Frame)             : 0.183
Stream size                    : 630 MiB (81%)
Title                          : New Girl - Season 1, Episode 11: Jess and Julia
Language                       : English
Default                        : Yes
Forced                         : No
Color range                    : Limited
Color primaries                : BT.709
Transfer characteristics       : BT.709
Matrix coefficients            : BT.709

Audio #1
ID                             : 2
Format                         : AC-3
Format/Info                    : Audio Coding 3
Mode extension                 : CM (complete main)
Format settings, Endianness    : Big
Codec ID                       : A_AC3
Duration                       : 21mn 43s
Bit rate mode                  : Constant
Bit rate                       : 448 Kbps
Channel(s)                     : 6 channels
Channel positions              : Front: L C R, Side: L R, LFE
Sampling rate                  : 48.0 KHz
Bit depth                      : 16 bits
Compression mode               : Lossy
Stream size                    : 69.6 MiB (9%)
Title                          : LATINO EXCLUSIVO JUANW200
Language                       : Latin
Default                        : Yes
Forced                         : Yes

Audio #2
ID                             : 3
Format                         : AC-3
Format/Info                    : Audio Coding 3
Mode extension                 : CM (complete main)
Format settings, Endianness    : Big
Codec ID                       : A_AC3
Duration                       : 21mn 43s
Bit rate mode                  : Constant
Bit rate                       : 384 Kbps
Channel(s)                     : 6 channels
Channel positions              : Front: L C R, Side: L R, LFE
Sampling rate                  : 48.0 KHz
Bit depth                      : 16 bits
Compression mode               : Lossy
Stream size                    : 59.7 MiB (8%)
Title                          : Dolby Digital 5.1 @ 384 kbps
Language                       : English
Default                        : No
Forced                         : No



Los subtitulos se los debo, pierdo mucho tiempo buscandolos y viendo si estan bien, los capitulos los descargue por torrent new.girl.s01.season.1.complete.720p.web.dl.dd5.1.h.264.nfhd si alguien tiene los subtitulos no dude en compartirlos
Mega
tamaño por capitulo 700 a 800 MB



Capitulos 1 al 10 aqui 
http://www.identi.li/index.php?topic=382254
New girl temp1 dual latino ingles 720p cap11 al 16
0 Puntos Score: 0/10
Visitas: 972 Favoritos: 0
0 Comentarios New girl temp1 dual latino ingles 720p cap11 al 16
Este post no tiene comentarios. Sea el primero!
Para dejar un comentario Registrate! o.. eres ya usuario? Accede!