Dinosaurios: Gigantes de Patagonia 3D[BR 3D 1080p]



Sinopsis:
El paleontólogo argentino Rodolfo Coria realiza un viaje por la Patagonia, para relatar el descubrimiento de los dinosaurios que habitaron ese territorio hace más de 64 millones de años, entre los que están los más grandes de los que se tengan noción (Argentinosaurus y a sus terroríficos depredadores, giganotosaurus).



Media Info:

General
Format : Matroska
Format version : Version 2
File size : 5.60 GiB
Duration : 40mn 34s
Overall bit rate : 19.8 Mbps
Encoded date : UTC 2012-11-14 15:23:36
Writing application : mkvmerge v5.8.0 ('No Sleep / Pillow') built on Sep 2 2012 15:37:04
Writing library : libebml v1.2.3 + libmatroska v1.3.0

Video
ID : 1
Format : AVC
Format/Info : Advanced Video Codec
Format profile : [email protected]
Format settings, CABAC : Yes
Format settings, ReFrames : 4 frames
Codec ID : V_MPEG4/ISO/AVC
Duration : 40mn 34s
Bit rate : 16.5 Mbps
Width : 1 920 pixels
Height : 1 080 pixels
Display aspect ratio : 16:9
Frame rate : 23.976 fps
Color space : YUV
Chroma subsampling : 4:2:0
Bit depth : 8 bits
Scan type : Progressive
Bits/(Pixel*Frame) : 0.331
Stream size : 4.67 GiB (83%)
Writing library : x264 core 110 r1820 fdcf2ae
Encoding settings : cabac=1 / ref=4 / deblock=1:-1:-1 / analyse=0x3:0x113 / me=umh / subme=7 / psy=1 / psy_rd=1.00:0.15 / mixed_ref=1 / me_range=16 / chroma_me=1 / trellis=1 / 8x8dct=1 / cqm=0 / deadzone=21,11 / fast_pskip=1 / chroma_qp_offset=-3 / threads=18 / sliced_threads=0 / nr=0 / decimate=1 / interlaced=0 / constrained_intra=0 / bframes=3 / b_pyramid=2 / b_adapt=1 / b_bias=0 / direct=3 / weightb=1 / open_gop=0 / weightp=2 / keyint=250 / keyint_min=23 / scenecut=40 / intra_refresh=0 / rc_lookahead=40 / rc=crf / mbtree=1 / crf=18.0 / qcomp=0.60 / qpmin=0 / qpmax=51 / qpstep=4 / ip_ratio=1.40 / aq=1:1.00
Language : English
Default : Yes
Forced : No

Audio #1
ID : 2
Format : DTS
Format/Info : Digital Theater Systems
Codec ID : A_DTS
Duration : 40mn 34s
Bit rate mode : Constant
Bit rate : 754 Kbps
Channel(s) : 6 channels
Channel positions : Front: L C R, Side: L R, LFE
Sampling rate : 48.0 KHz
Bit depth : 16 bits
Compression mode : Lossy
Stream size : 219 MiB (4%)
Language : Spanish
Default : Yes
Forced : No

Audio #2
ID : 3
Format : AC-3
Format/Info : Audio Coding 3
Mode extension : CM (complete main)
Format settings, Endianness : Big
Codec ID : A_AC3
Duration : 40mn 34s
Bit rate mode : Constant
Bit rate : 640 Kbps
Channel(s) : 6 channels
Channel positions : Front: L C R, Side: L R, LFE
Sampling rate : 48.0 KHz
Bit depth : 16 bits
Compression mode : Lossy
Stream size : 186 MiB (3%)
Language : Spanish
Default : No
Forced : No

Audio #3
ID : 4
Format : DTS
Format/Info : Digital Theater Systems
Codec ID : A_DTS
Duration : 40mn 34s
Bit rate mode : Constant
Bit rate : 1 510 Kbps
Channel(s) : 6 channels
Channel positions : Front: L C R, Side: L R, LFE
Sampling rate : 48.0 KHz
Bit depth : 24 bits
Compression mode : Lossy
Stream size : 438 MiB (8%)
Language : English
Default : No
Forced : No

Text #1
ID : 5
Format : VobSub
Muxing mode : zlib
Codec ID : S_VOBSUB
Codec ID/Info : The same subtitle format used on DVDs
Language : Spanish
Default : Yes
Forced : No

Text #2
ID : 6
Format : VobSub
Muxing mode : zlib
Codec ID : S_VOBSUB
Codec ID/Info : The same subtitle format used on DVDs
Language : Spanish
Default : No
Forced : No

Text #3
ID : 7
Format : VobSub
Muxing mode : zlib
Codec ID : S_VOBSUB
Codec ID/Info : The same subtitle format used on DVDs
Language : English
Default : No
Forced : No

Menu
00:00:00.000 : en:Chapter01
00:02:17.137 : en:Chapter02
00:03:12.150 : en:Chapter03
00:06:32.308 : en:Chapter04
00:07:23.442 : en:Chapter05
00:10:43.809 : en:Chapter06
00:14:20.484 : en:Chapter07
00:21:50.350 : en:Chapter08
00:25:35.909 : en:Chapter09
00:28:44.889 : en:Chapter10
00:31:22.046 : en:Chapter11
00:33:10.905 : en:Chapter12
00:35:08.773 : en:Chapter13
00:37:06.349 : en:Chapter14
00:39:05.468 : en:Chapter15
00:40:33.931 : en:Chapter16



Tráiler:



Enlaces De Descarga
Dinosaurios: Gigantes de Patagonia 3D[BR 3D 1080p]
20 Puntos Score: 10/10
Visitas: 3548 Favoritos: 5
Ver los usuarios que votaron...
6 Comentarios Dinosaurios: Gigantes de Patagonia 3D[BR 3D 1080p]
Excelente aporte amigo. ?
no lo tendras amigo en calidad 1080p normal? siento que 40min de video para 6gb es mucho XD no tendras uno que pese 2gb o 3gb jajajaja porfavor te lo agradezco
@razor025 No pero ya lo voy a buscar @Shadow729 No lo siento es que tengo un problema hago una captura y si borrosa no se si es mi compu o que
@TomasCabj7 Yo utilizo el VLC media player para hacer capturas de video amigo, tal vez te sirva.  
@Shadow729 Ah bueno gracias por el consejo lo pondre en practica
buenisimo pa, no tngo led 3d pero algun dia tendre y en un futuro lo mirare.. muchas gracias!!  
Para dejar un comentario Registrate! o.. eres ya usuario? Accede!