Oops.. Este post tiene los enlaces eliminados!

Identi revisa las denuncias de los usuarios en busca de enlaces eliminados que no dejan descargar los archivos, este mensaje te informa que este post que estas viendo tiene los enlaces eliminados.

Usa el Buscador

Por favor, te recomendamos que uses el buscador para encontrar más alternativas.

Star Trek Voyager [Completa][DvdRip][Latino]

  • Categoría: Reciclaje
  • Publicado hace más de 1 año




Serie de TV (1995-2001). 7 temporadas. 172 episodios. 
Año 2371. Transportada al Cuadrante Delta por una fuerza hostil que ha matado a la mitad de su tripulación, la capitana Kathryn Janeway se ve forzada a hacer un pacto con los asaltantes: la tripulación de una nave de oficiales renegados de la Federación, conocidos como Maquis. Mientras la tensión entre los Maquis y los oficiales de la Flota Estelar estalla en violentos incidentes ocasionales, la tripulación tiene que enfrentarse a peligros mayores y más mortíferos, bajo la forma de misteriosas anomalías espaciales que amenazan con destruir la nave en más de una ocasión. También están las violentas y amenazadoras razas locales, como los belicosos Kazon, y los siniestros cosechadores de órganos de la Sodalidad Vidiiana. Al poner rumbo de vuelta a casa, la capitana Janeway y su tripulación se embarcan en un excitante y peligroso viaje a través del espacio desconocido...


 
TÍTULO ORIGINAL: Star Trek: Voyager
AÑO: 1995
DURACIÓN:42-44 min con episodios dobles de 85 min.
PAÍS: Estados Unidos

DIRECTORES: Rick Berman (Creator), Michael Piller (Creator), Jeri Taylor (Creator)
GUIÓN: Rick Berman, Michael Piller, Gene Roddenberry, Jeri Taylor
BANDA SONORA: Paul Baillargeon, Dennis McCarthy

FOTOGRAFÍA: 
Marvin V. Rush, Douglas Knapp
REPARTO: Kate Mulgrew, Robert Beltran, Roxann Dawson, Robert Duncan McNeill, Ethan Phillips,
 Robert Picardo, Tim Russ, Garrett Wang, Tarik Ergin, Jennifer Lien, Jeri Ryan
PRODUCTORA: Paramount Television
GÉNERO: Ciencia ficción | Aventura espacial





Calidad: DVDRip
Fuente del vídeo: DVD9 Región 2 PAL 
Tamaño: Entre 260MB y 900 MB (Capítulos dobles)
Contenedor: .mkv
Codec vídeo: H.264
Resolución: 640x488 y 640x492
Frames: 25.00 fps
Audio 1 (Lat): AC3 2.0 192 Kbps 
Audio 2 (Eng): AC3 5.1 384 Kbps 
Sub 1 (Castellano): VobSub
Sub 2 (Inglés): Vobsub

Anexo de Los Capitulos

Format                         : Matroska
Format version                 : Version 2
File size                      : 282 MiB
Duration                       : 44mn 0s
Overall bit rate               : 896 Kbps
Writing application            : HandBrake 0.9.8
Writing library                : libmkv 0.6.5

Video
ID                             : 1
Format                         : AVC
Format/Info                    : Advanced Video Codec
Format profile                 : [email protected]
Format settings, CABAC         : Yes
Format settings, ReFrames      : 4 frames
Codec ID                       : V_MPEG4/ISO/AVC
Duration                       : 44mn 0s
Bit rate                       : 302 Kbps
Width                          : 640 pixels
Height                         : 488 pixels
Display aspect ratio           : 4:3
Frame rate mode                : Constant
Frame rate                     : 25.000 fps
Color space                    : YUV
Chroma subsampling             : 4:2:0
Bit depth                      : 8 bits
Scan type                      : Progressive
Bits/(Pixel*Frame)             : 0.039
Stream size                    : 95.1 MiB (34%)
Writing library                : x264 core 120
Encoding settings              : cabac=1 / ref=3 / deblock=1:0:0 / analyse=0x3:0x113 / me=hex / subme=7 / psy=1 / psy_rd=1.00:0.00 / mixed_ref=1 / me_range=16 / chroma_me=1 / trellis=1 / 8x8dct=1 / cqm=0 / deadzone=21,11 / fast_pskip=1 / chroma_qp_offset=-2 / threads=9 / sliced_threads=0 / nr=0 / decimate=1 / interlaced=0 / bluray_compat=0 / constrained_intra=0 / bframes=3 / b_pyramid=2 / b_adapt=2 / b_bias=0 / direct=1 / weightb=1 / open_gop=0 / weightp=2 / keyint=250 / keyint_min=25 / scenecut=40 / intra_refresh=0 / rc_lookahead=50 / rc=crf / mbtree=1 / crf=23.5 / qcomp=0.60 / qpmin=3 / qpmax=69 / qpstep=4 / ip_ratio=1.40 / aq=1:1.00
Language                       : English
Default                        : Yes
Forced                         : No
Color primaries                : BT.601 NTSC
Transfer characteristics       : BT.709
Matrix coefficients            : BT.601

Audio #1
ID                             : 2
Format                         : AC-3
Format/Info                    : Audio Coding 3
Format profile                 : Dolby Digital
Mode extension                 : CM (complete main)
Format settings, Endianness    : Big
Codec ID                       : A_AC3
Duration                       : 44mn 0s
Bit rate mode                  : Constant
Bit rate                       : 192 Kbps
Channel count                  : 2 channels
Channel positions              : Front: L R
Sampling rate                  : 48.0 KHz
Bit depth                      : 16 bits
Compression mode               : Lossy
Stream size                    : 60.4 MiB (21%)
Language                       : Spanish
Default                        : Yes
Forced                         : No

Audio #2
ID                             : 3
Format                         : AC-3
Format/Info                    : Audio Coding 3
Mode extension                 : CM (complete main)
Format settings, Endianness    : Big
Codec ID                       : A_AC3
Duration                       : 44mn 0s
Bit rate mode                  : Constant
Bit rate                       : 384 Kbps
Channel count                  : 6 channels
Channel positions              : Front: L C R, Side: L R, LFE
Sampling rate                  : 48.0 KHz
Bit depth                      : 16 bits
Compression mode               : Lossy
Stream size                    : 121 MiB (43%)
Language                       : English
Default                        : No
Forced                         : No






      





TEMPORADA 1
Enlaces De Descarga



TEMPORADA 2
Enlaces De Descarga



TEMPORADA 3
Enlaces De Descarga



TEMPORADA 4
Enlaces De Descarga



TEMPORADA 5
Enlaces De Descarga



TEMPORADA 6

Enlaces De Descarga



TEMPORADA 7

Enlaces De Descarga



stvoyp4
Star Trek Voyager [Completa][DvdRip][Latino]
75 Puntos Score: 9.4/10
Visitas: 3678 Favoritos: 14
Ver los usuarios que votaron...
33 Comentarios Star Trek Voyager [Completa][DvdRip][Latino]
Los links son tuyos?
Gracielaaaaaaaaaaaaaaaaaaaaaaaaaaaaaaaaaaaaaaaaa
Nunca he podido ver algo de estas franquicias, alguien me podria decir si primero tendria que ver las peliculas, o las puedo ver ver despues hehe, buenisimo aporte amigo, saludos mas tarde +10
Esta serie es spin off de Startrek:The Next Generation y a su vez de Startrek:Deep Space 9, es totalmente independiente y todo lo que necesites saber te lo explican en el episodio. La mayor?
Muy bueno, excelente serie y me atrever?
@ricardo130 Los links son mio pero el contenido es de un amigo de otra pagina
Gran aporte! Con mi novia la estamos viendo, vamos por la 6ta Temp. La tengo en ingles con subs, y a pesar que Deep Space Nine fue incre?
Muchas gracias !!! nunca tan completa !!!  
Una maravilla master ,tengo Star Trek  y ahora bajo esta ! gracias campeon !!! son como 50g pero no importa vale la pena Graciasssssss campeon !!!  
gracias

bajando
Amigo,, falta elfinal de la temporada 7 son como 6 capitulos que faltan.
Gracias por las demas.
excelente podria subir nuevamente la temp 7 que ya no esta  
la temporada 7 no esta .por favor si poder volver a subirla !! Gracias
links caidos!!       era muy bueno para ser verdad!!
lo mejor de esta serie
pude bajar la primera temporada nada mas los demas links de las demas temporadas estan muertas sera mucho dranma resubirlos? gracias muy buen aporte
@djfitomix @romanneger @DRECO1980 @malebolg No se preocupen ya lo voy a subir es que me acaban de eliminar una de mis cuentas de mega
@TomasCabj7 Gracias man si una cagada cuando te pasa eso un laburo de puta madre tirado a la basura...bueno igual te deje 10 puntines y esperamos los nuevos links
@djfitomix Gracias si de una capas sera porque dejaba los link sueltos ahora voy a ser mas cuidadoso Dale Ya lo voy a resubir va a tardar un poco xq no tengo tanto tiempo y ademas estoy trabajando en otros aportes pero apenas puedo lo subo
Gracias por ser tan atento a la espera de los nuevos links,  
Cita TomasCabj7: Mostrar

que barbaro. Ojala puedas subirlos. Esta serie me mataba, cada vez queestaban dando un capitulome quedaba mirandolo (despues de haber visto toda la temporada!!)
Para mi, capitulos ineludibles eran todos aquellos en que aparecian los borg de alguna u otra manera.
Gracias !!! ma faltan los ultimos capitulos d l atemporada 7 solamente.
Gracias por contestar y por tu esfuerzo de subir material  para compartir con todos.
Cita TomasCabj7: Mostrar
los links de la 5 y 6 temporada estan caidos, por favor arreglenlos, pues los anteriores estan geniales
la temporada 6 y 7 necesito hermano, casi la bajo completa, xfavor si la podes subir te lo voy agradecer
Esperando .....muy ansioso !!!
yo tambien estoy esperando pueda ser q lo suba o que avise q lo esta haciendo... jejjejejeje
Los de las primeras temporadas tambien ahi varios caidos, y cada dia se pierde uno, los estaba bajando, y ya hoy muchos que funcionaban ayer estan muertos  
Por favor podr?
Por favor sabes cdo la podras subir ??Gracias
Para dejar un comentario Registrate! o.. eres ya usuario? Accede!