Una Historia Real/Latino/MG/720p

Una Historia Real/Latino/MG/720p











Título original: True Story


Año: 2015


Duración: 100 min.


País:  Estados Unidos


Director: Rupert Goold


Guión: David Kajganich (Memorias: Michael Finkel)


Música: Marco Beltrami


Fotografía: Masanobu Takayanagi


Reparto:

 Jonah Hill, James Franco, Felicity Jones, Ethan Suplee, Gretchen Mol, Robert John Burke, Maria Dizzia, Genevieve Angelson, Betty Gilpin


Productora: New Regency Pictures / Plan B Entertainment


Género: Drama. Thriller | Basado en hechos reales




Sinopsis:


Cuando Michael Finkel (Jonah Hill), un desacreditado reportero del New York Times, conoce al  presunto asesino buscado por el FBI Christian Longo (James Franco) ?que se ha apropiado de la identidad de    Finkel?, su investigación se transforma gradualmente en un inolvidable juego del gato y el ratón. Basada en hechos reales, narra la incesante búsqueda de la verdadera historia de Longo por parte de Finkel.


Críticas.


"La verdad es extraña, pero difícilmente más interesante que la ficción en 'True Story', una  nueva colaboración, curiosamente seria, de James Franco y Jonah Hill" 

Peter Debruge: Variety 


"Una película escalofriante que a pesar de su realización y sus mejores esfuerzos,        amenaza  con sofocar el poderío de sus estrellas"

 Indiewire 


"Incluso con el trabajo honesto e inteligente de Franco y Hill, y el sólido aporte de la  infrautilizada Felicity Jones como la compañera de Finkel, la película sólo cobra vida  esporádicamente" 

Michael Phillips: Chicago Tribune 


"Una dramatización bien hecha, pero sólo parcialmente convincente, de las dinámicas entre  un periodista y  su entrevistado" 

John DeFore: The Hollywood Reporter 


"La historia real de Christian Longo y Michael Finkel podría ser una fábula fascinante e  inquietante sobre el crimen, la curiosidad y la ética periodística, pero esta película no es nada  de esto"

A. O. Scott: The New York Times



 Info. Técnica del Archivo.


Unique ID                      : 238066043870172303388929145339347235711 (0xB319DA2DEABD15CDB47F60B0F770737F)

Complete name                  : True Story(2015)-720p

Format                         : Matroska

Format version                 : Version 4 / Version 2

File size                      : 1.39 GiB

Duration                       : 1h 39mn

Overall bit rate               : 1 989 Kbps

Movie name                     : True Story (2015)-720p

Encoded date                   : UTC 2015-07-12 23:01:48

Writing application            : mkvmerge v8.1.0 ('Psychedelic Postcard') 64bit

Writing library                : libebml v1.3.1 + libmatroska v1.4.2

DURATION                       : 01:39:26.263000000

NUMBER_OF_FRAMES               : 228396

NUMBER_OF_BYTES                : 83527679

_STATISTICS_WRITING_APP        : mkvmerge v8.1.0 ('Psychedelic Postcard') 64bit

_STATISTICS_WRITING_DATE_UTC   : 2015-07-12 23:01:48

_STATISTICS_TAGS               : BPS DURATION NUMBER_OF_FRAMES NUMBER_OF_BYTES


Video

ID                             : 1

Format                         : MPEG-4 Visual

Format profile                 : [email protected]

Format settings, BVOP          : No

Format settings, QPel          : No

Format settings, GMC           : No warppoints

Format settings, Matrix        : Default (H.263)

Codec ID                       : V_MS/VFW/FOURCC / XVID

Codec ID/Hint                  : XviD

Bit rate                       : 1 454 Kbps

Width                          : 720 pixels

Height                         : 384 pixels

Display aspect ratio           : 1.85:1

Original display aspect ratio  : 1.85:1

Frame rate mode                : Variable

Color space                    : YUV

Chroma subsampling             : 4:2:0

Bit depth                      : 8 bits

Scan type                      : Progressive

Compression mode               : Lossy

Title                          : True Story (2015)-720p

Writing library                : Lavc56.13.100

Default                        : Yes

Forced                         : No


Audio #1

ID                             : 2

Format                         : MPEG Audio

Format version                 : Version 1

Format profile                 : Layer 3

Mode                           : Joint stereo

Mode extension                 : MS Stereo

Codec ID                       : A_MPEG/L3

Codec ID/Hint                  : MP3

Duration                       : 1h 39mn

Bit rate mode                  : Constant

Bit rate                       : 112 Kbps

Channel(s)                     : 2 channels

Sampling rate                  : 44.1 KHz

Compression mode               : Lossy

Stream size                    : 79.7 MiB (6%)

Title                          : Latino

Writing library                : LAME3.99r

Encoding settings              : -m j -V 4 -q 2 -lowpass 15.6 -b 112

Language                       : Latin

Default                        : Yes

Forced                         : No


Audio #2

ID                             : 3

Format                         : AC-3

Format/Info                    : Audio Coding 3

Mode extension                 : CM (complete main)

Format settings, Endianness    : Big

Codec ID                       : A_AC3

Duration                       : 1h 39mn

Bit rate mode                  : Constant

Bit rate                       : 384 Kbps

Channel(s)                     : 6 channels

Channel positions              : Front: L C R, Side: L R, LFE

Sampling rate                  : 48.0 KHz

Bit depth                      : 16 bits

Compression mode               : Lossy

Stream size                    : 274 MiB (19%)

Title                          : Inglés

Language                       : English

Default                        : No

Forced                         : No













Enlaces De Descarga
[links]



Una Historia Real/Latino/MG/720p
Una Historia Real/Latino/MG/720p
0 Puntos Score: 0/10
Visitas: 2437 Favoritos: 2
3 Comentarios Una Historia Real/Latino/MG/720p
@DonatoM @GABY_ARB23 Gracias a ustedes por pasarse y comentar, espero la disfruten.  
Para dejar un comentario Registrate! o.. eres ya usuario? Accede!