Take Me Home Tonight (2011) DVDRip XViD-EP1C

Take Me Home Tonight (2011) DVDRip XViD-EP1C




Sinopsis: El argumento de Take Me Home Tonight nos lleva hasta el verano del año 1988, cuando tres amigos están a punto de asistir a una fiesta totalmente fuera de control, la cual se celebra con motivo de su graduación universitaria. Tori Fredeking (Teresa Palmer) es el amor platónico de Matt (Topher Grace). Cuando Tori invita a Matt a ir a la fiesta, él piensa que será su gran oportunidad para conquistarla. Como suele pasar, no todo se desarrolla según lo esperado.

        ::::::::::::  EP1C Presents  ::::::::::::

::File:: Take.Me.Home.Tonight.2011.DVDRip.XViD-EP1C

::Video Source:: DVD

::Language:::::: English
::IMDB:::::::::: http://www.imdb.com/title/tt0810922/
Follow an aimless college grad who pursues his dream girl at
a wild Labor Day weekend party. He, his twin sister and their
best friend struggle with their burgeoning adulthood over the course of the night.

::Specs:::::::::

Format                 : AVI
Format/Info              : Audio Video Interleave
File size                : 699 MiB
Duration               : 1h 37mn
Overall bit rate           : 1 005 Kbps
Writing application          : VirtualDubMod 1.5.10.2 (build 2540/release)
Writing library            : VirtualDubMod build 2540/release

Video
ID                   : 0
Format                 : MPEG-4 Visual
Format profile             : Advanced [email protected]
Format settings, BVOP        : 2
Format settings, QPel        : No
Format settings, GMC         : No warppoints
Format settings, Matrix      : Default (H.263)
Muxing mode              : Packed bitstream
Codec ID               : XVID
Codec ID/Hint            : XviD
Duration               : 1h 37mn
Bit rate               : 861 Kbps
Width                  : 624 pixels
Height                 : 256 pixels
Display aspect ratio         : 2.40:1
Frame rate               : 23.976 fps
Color space              : YUV
Chroma subsampling         : 4:2:0
Bit depth                : 8 bits
Scan type                : Progressive
Compression mode           : Lossy
Bits/(Pixel*Frame)         : 0.225
Stream size              : 599 MiB (86%)
Writing library            : XviD 1.2.1 (UTC 2008-12-04)

Audio
ID                   : 1
Format                 : MPEG Audio
Format version             : Version 1
Format profile             : Layer 3
Mode                   : Joint stereo
Mode extension             : MS Stereo
Codec ID               : 55
Codec ID/Hint            : MP3
Duration               : 1h 37mn
Bit rate mode            : Variable
Bit rate               : 128 Kbps
Channel(s)               : 2 channels
Sampling rate            : 48.0 KHz
Compression mode           : Lossy
Stream size              : 91.5 MiB (13%)
Alignment                : Aligned on interleaves
Interleave, duration         : 24 ms (0.58 video frame)
Interleave, preload duration   : 224 ms
   

::NOTES:::::::::
Presents Take Me Home Tonight
Enjoy. // EP1C

:: Got something we might be interested in? contact us: [email protected] ::

::::::::::::::::::::::::::::::::  RESPECT  :::::::::::::::::::::::::::::::::
IMAGiNE, Rx, FLAWL3SS, ViSiON, T0XiC, HiVE, bobwhite & All Our Friends!

          ::::::::::::::::  We Are  :::::::::::::::: 
          :::::: Surpassing the usual or ordinary ::::::
::::::::::::::::::    Heroic and impressive in quality    ::::::::::::::::::   
::::::::::::::::::::::::::::::::   EP1C   ::::::::::::::::::::::::::::::::









i-max.vn
Take Me Home Tonight (2011) DVDRip XViD-EP1C
0 Puntos Score: 0/10
Visitas: 1940 Favoritos: 1
0 Comentarios Take Me Home Tonight (2011) DVDRip XViD-EP1C
Este post no tiene comentarios. Sea el primero!
Para dejar un comentario Registrate! o.. eres ya usuario? Accede!