Shakira ft. Pitbull ? Rabiosa (2011) HD 1080 | MP4








Shakira ft. Pitbull ? Rabiosa (2011) HD 1080 | MP4 | Audio aac 44100 Hz estéreo


?Rabiosa? es el tercer sencillo del séptimo álbum de estudio, Sale el Sol de la cantante colombiana Shakira.
Canción
La canción posee fusiones entre merengue, salsa, lambada y música electrónica. Cuenta con la colaboración de Pitbull en la versión en inglés, y con El Cata en la versión en español. Es la versión de Shakira de la canción del mismo nombre interpretada por El Cata. Se convierte en la segunda cancion de Shakira en ser numero uno en el Billboard Hot 100 . El audio de la canción cuenta con más de 6.000.000 reproducciones en el portal de videos de Youtube. También existe un fuerte rumor de que la cantautora colombiana realizará otras dos versiones en español e inglés de esta canción, a modo de remix, pero con la colaboración de la cantante Jennifer López.


Info Codificacion

Archivo: Shakira_Rabiosa_bydarkangel.mp4
Tamaño: 103297564 bytes ( 98.51 MiB)
Duración: 00:02:50
avg.bitrate: 4861 kb/s
Audio: aac, 44100 Hz, estéreo ( und )
Video: H264, yuv420p, 1920×1080, 25.00 fps ( r ) ( und )
subido: by_darkangel

General

Nombre completo: Shakira_Rabiosa_by_darkangel.mp4
Formato: MPEG ? 4
Formato del perfil: Base Media / Versión 2
ID Códec: MP42
Tamaño del archivo: 98.5 MB
Duración: 2 min 50
Tasa de bits total: 4 853 Kbps
Fecha codificada: 05/06/2011 23:24:06 UTC
Fecha de la etiqueta: UTC 06/05/2011 23:24:06
gsst: 0
gstd: 170280
gssd: BADC20644HH1307442563384021
gshh: v9.lscache4.c.youtube.com

Video
ID: 1
Formato: AVC
Formato / Info: Advanced Video Codec
Formato del perfil: [email protected]
Ajustes del formato, CABAC: Sí
Ajustes del formato, replanteamientos: un marco de
Ajustes del formato, del Partido Republicano: M = 1, N = 17
ID Códec: avc1
ID Codec / Info: Codificación de vídeo avanzada
Duración: 2 min 50
Poco el modo de cambio: variable
Velocidad de grabación: 4 697 Kbps
Máxima velocidad de bits: 9 163 Kbps
Ancho: 1 920 píxeles
Altura: 1 080 píxeles
Mostrar la relación de aspecto 16:9
Marco de modo de tasa: Constante
Velocidad de cuadros: 25.000 fps
Espacio de color: YUV
Submuestreo Chroma: 4:2:0
La profundidad de bits: 8 bits
Tipo de exploración: Progresivo
Bits / ( Pixel * cuadro ): 0.091
Stream size: 95.3 MiB ( 97 % )
Fecha de la etiqueta: UTC 06/05/2011 23:24:07

Audio
ID: 2
Formato: AAC
Formato / Info: Codec de audio avanzada
Formato de la versión: Versión 4
Formato del perfil: LC
Ajustes del formato, SBR: No
ID Códec: 40
Duración: 2 min 50
Poco el modo de cambio: variable
Velocidad de bits: 152 Kbps
Máxima velocidad: 250 Kbps
Canal ( s ): 2 canales
Canal posiciones: Frontal: L R
Frecuencia de muestreo: 44,1 KHz
Stream size: 3.08 MiB ( 3% )
Título: IsoMedia Archivo Producido por Google, 05/11/2011
Fecha codificada: 05/06/2011 23:24:06 UTC
Fecha de la etiqueta: UTC 06/05/2011 23:24:07

Letra en ingles:

Rabiosa
If you don?t get enough I?ll make it double
I got my boy now in big, big trouble
You know I want you
Atracao ahi
Ratata

You?ve got too much of that sex appeal
Don?t play around because I?m for real
You see that road isn?t meant for me
You know I want you amarrao aqui

Oye papi
If you like it mocha
Come get a little closer
And bite me en la boca

Oye papi
If you like it mocha
Come get a little closer
And bite me en la boca

Rabiosa, rabiosa
Come closer, come pull me closer
Yo soy rabiosa, rabiosa
Come closer, come pull me closer

Rabiosa,
if you don?t get enough I?ll make it double

I?m tryin to have fun and
I love you but you want me
Atracao (ratata)

You got a lot of sex appeal Now baby I?m for real
You see that road isn?t meant for me
You know I want you amarrao aqui

Oye mami
Let me get that mocha
Come get a little closer
And bite me en la boca

Oye papi
If you like it mocha
Come get a little closer
And bite me en la boca

Oye mami
I like your mocha
Come get a little closer
And bite me en la boca

Oye papi
If you like it mocha
Come get a little closer
And bite me en la boca

Rabiosa, rabiosa
Come closer, come pull me closer
Yo soy rabiosa, rabiosa
Come closer, come pull me closer

Oye mami
Let me get that mocha
Come get a little closer
And bite me en la boca

Oye papi
If you like it mocha
Come get a little closer
And bite me en la boca

Oye mami
I like your mocha
Come get a little closer
And bite me en la boca

Oye papi
If you like it mocha
Come get a little closer
And bite me en la boca



CAPTURAS





 



NO TIENE PASS

RECUERDA RECOMENDARLO CON TUS SEGUIDORES



Shakira ft. Pitbull ? Rabiosa (2011) HD 1080 | MP4
13 Puntos Score: 4.3/10
Visitas: 2083 Favoritos: 2
Ver los usuarios que votaron...
1 Comentarios Shakira ft. Pitbull ? Rabiosa (2011) HD 1080 | MP4
Para dejar un comentario Registrate! o.. eres ya usuario? Accede!