John Fogerty - Premonition [DVD]+[Flac][Mega]




John Fogerty - Premonition!


Bueno hoy les dejo este DVD mas el disco en flac de este grandisimo cantante, Guitarrista y Compositor. Comenzo su carrera a finales de los 60 con la banda Creedence Clearwater Revival, y tuvieron mucho exito en un periodo de 5 años, llegaron a ser muy famosos, pero la banda no funciono y cada quien se fue por su lado, pienso que si seguian asi fueran sido igual de famosos que The Beatles!

Espero les guste el aporte y que lo disfruten!


John Cameron Fogerty (Berkeley, California, 28 de mayo de 1945) es un cantante, compositor y guitarrista estadounidense conocido por su trabajo como líder y vocalista principal del grupo de rock Creedence Clearwater Revival. Fogerty tiene una rara distinción al ser nombrado en la lista de "Rolling Stone" de los 100 guitarristas más grandes en el # 40 y la lista de los 100 mejores cantantes en el # 72. Las canciones "Proud Mary" y "Born on the Bayou", también figuran entre las mejores canciones pop ("Proud Mary", # 41) y canciones para guitarra ("Born on the Bayou", # 53). Ganador del Grammy y miembro del Salón de la Fama del Rock and Roll, destaca por ser uno de los mejores cantantes, guitarristas y compositores de la historia.









Premonition es el primer álbum en directo del músico estadounidense John Fogerty, publicado por la compañía discográfica Geffen Records en junio de 1998. El álbum recoge dos conciertos grabados en los Warner Bros. Studios los días 12 y 13 de diciembre de 1997, e incluye canciones de su carrera en solitario y de su etapa anterior con el grupo Creedence Clearwater Revival. Una versión en DVD incluyó la filmación del concierto con cuatro canciones adicionales.








Flac: Peso: 491 Mb 
Peso del rar: 517.2 MB

John Fogerty / Premonition




Used drive : PIONEER DVD-RW DVR-112D Adapter: 1 ID: 0




Read mode : Secure


Utilize accurate stream : Yes


Defeat audio cache : Yes


Make use of C2 pointers : No




Read offset correction : 48


Overread into Lead-In and Lead-Out : No


Fill up missing offset samples with silence : Yes


Delete leading and trailing silent blocks : No


Null samples used in CRC calculations : No


Used interface : Installed external ASPI interface




Used output format : User Defined Encoder


Selected bitrate : 768 kBit/s


Quality : High


Add ID3 tag : No


Command line compressor : C:Program FilesExact Audio CopyFLACFLAC.EXE


Additional command line options : -8 -V -T "ARTIST=%a" -T "TITLE=%t" -T "ALBUM=%g" -T "DATE=%y" -T "TRACKNUMBER=%n" -T "GENRE=%m" -T "COMMENT=%e" %s -o %d





TOC of the extracted CD




Track | Start | Length | Start sector | End sector 


---------------------------------------------------------


1 | 0:00.00 | 4:54.22 | 0 | 22071 


2 | 4:54.22 | 4:15.08 | 22072 | 41204 


3 | 9:09.30 | 5:24.20 | 41205 | 65524 


4 | 14:33.50 | 5:02.02 | 65525 | 88176 


5 | 19:35.52 | 2:57.45 | 88177 | 101496 


6 | 22:33.22 | 3:18.28 | 101497 | 116374 


7 | 25:51.50 | 2:26.20 | 116375 | 127344 


8 | 28:17.70 | 3:32.22 | 127345 | 143266 


9 | 31:50.17 | 3:55.15 | 143267 | 160906 


10 | 35:45.32 | 2:57.65 | 160907 | 174246 


11 | 38:43.22 | 3:54.40 | 174247 | 191836 


12 | 42:37.62 | 4:25.30 | 191837 | 211741 


13 | 47:03.17 | 3:41.48 | 211742 | 228364 


14 | 50:44.65 | 4:23.10 | 228365 | 248099 


15 | 55:08.00 | 2:18.65 | 248100 | 258514 


16 | 57:26.65 | 4:11.10 | 258515 | 277349 


17 | 61:38.00 | 4:01.65 | 277350 | 295489 


18 | 65:39.65 | 2:53.30 | 295490 | 308494 





DVD: Peso 4.29 GB


Peso del rar: 4.13 GB


Subtitulos: Si, en Ingles






















Flac!




DVD!






FIN DEL POST!
John Fogerty - Premonition [DVD]+[Flac][Mega]
20 Puntos Score: 10/10
Visitas: 1682 Favoritos: 2
Ver los usuarios que votaron...
10 Comentarios John Fogerty - Premonition [DVD]+[Flac][Mega]
+10 AL RATO
Q LUJO DE MUSICA, HERMANO  
@josewalles gracias, que lo disfrutes amigo, es uno de los mejores guitarristas y cantautores!  
Muy buen aporte, este disco en vivo es increible, toca con gran sentimiento, muy distinto a lo que se puede ver en las bandas actuales.
@deepsaxon si, de hecho en todos sus conciertos este man interpreta enormemente y con su guitarra uff! saludos amigo  
No me agrega nada al Jdownloader. Ni el FLAC ni el DVD  
@josewalles Disculpa, ya los arregle, intenta nuevamente amigo, saludos  
ufffffff que genio !!!! que capo Juancito Cameron !!!!! un lujo much?
Ya lo tengo, es muy bueno   . Saludos
@ellocoboni hehehe si, lo descargue de tu post amigo, gracias por los puntos, saludos  
Para dejar un comentario Registrate! o.. eres ya usuario? Accede!