Oops.. Este post tiene los enlaces eliminados!

Identi revisa las denuncias de los usuarios en busca de enlaces eliminados que no dejan descargar los archivos, este mensaje te informa que este post que estas viendo tiene los enlaces eliminados.

Usa el Buscador

Por favor, te recomendamos que uses el buscador para encontrar más alternativas.

The Middle temporada 5dual latino ingles capitulo1

  • Categoría: Reciclaje
  • Publicado hace más de 1 año




The Middle temporada 5 dual latino ingles capitulo 1 720P mkv + avi xvid ligero
Saludos aqui les dejo el capitulo 1 de la temporada 5,ire subiendo de a poco los capitulos,
The Middle, es una serie de televisión estadounidense de la cadena ABC, creada y producida por Eileen Heisler y DeAnn Heline.
La serie trata de la vida de Frankie Heck (Patricia Heaton), una mujer de mediana edad, que está casada con Mike Heck (Neil Flynn); quienes residen en el pequeño pueblo de Orson, en Indiana. Frankie y Mike son padres de tres hijos: Axl (Charlie McDermott), Sue (Eden Sher) y Brick (Atticus Shaffer). Chris Kattan hace el papel de Bob, un excéntrico amigo de Frankie, que trabaja en la misma automotora que ella
Capturas 720p 1280x720



Video
ID                             : 1
Format                         : AVC
Format/Info                    : Advanced Video Codec
Format profile                 : [email protected]
Format settings, CABAC         : Yes
Format settings, ReFrames      : 8 frames
Codec ID                       : V_MPEG4/ISO/AVC
Duration                       : 21mn 58s
Bit rate                       : 5 361 Kbps
Width                          : 1 280 pixels
Height                         : 720 pixels
Display aspect ratio           : 16:9
Frame rate mode                : Constant
Frame rate                     : 23.976 fps
Color space                    : YUV
Chroma subsampling             : 4:2:0
Bit depth                      : 8 bits
Scan type                      : Progressive
Bits/(Pixel*Frame)             : 0.243
Stream size                    : 842 MiB (85%)
Title                          : The Middle S05E01
Writing library                : x264 core 138 r2358 9e941d1
Encoding settings              : cabac=1 / ref=8 / deblock=1:-2:-2 / analyse=0x3:0x113 / me=umh / subme=9 / psy=1 / psy_rd=1.00:0.00 / mixed_ref=1 / me_range=24 / chroma_me=1 / trellis=1 / 8x8dct=1 / cqm=0 / deadzone=21,11 / fast_pskip=0 / chroma_qp_offset=-2 / threads=18 / lookahead_threads=2 / sliced_threads=0 / nr=0 / decimate=1 / interlaced=0 / bluray_compat=0 / constrained_intra=0 / bframes=5 / b_pyramid=2 / b_adapt=2 / b_bias=0 / direct=3 / weightb=1 / open_gop=0 / weightp=2 / keyint=250 / keyint_min=23 / scenecut=40 / intra_refresh=0 / rc_lookahead=50 / rc=crf / mbtree=1 / crf=18.0 / qcomp=0.60 / qpmin=0 / qpmax=69 / qpstep=4 / ip_ratio=1.40 / aq=1:1.00
Language                       : English
Default                        : Yes
Forced                         : No

Audio #1
ID                             : 2
Format                         : AC-3
Format/Info                    : Audio Coding 3
Mode extension                 : CM (complete main)
Format settings, Endianness    : Big
Codec ID                       : A_AC3
Duration                       : 21mn 58s
Bit rate mode                  : Constant
Bit rate                       : 448 Kbps
Channel(s)                     : 2 channels
Channel positions              : Front: L R
Sampling rate                  : 48.0 KHz
Bit depth                      : 16 bits
Compression mode               : Lossy
Stream size                    : 70.4 MiB (7%)
Title                          : ESPAÑOL LATINO JUANW200
Language                       : Latin
Default                        : Yes
Forced                         : Yes

Audio #2
ID                             : 3
Format                         : AC-3
Format/Info                    : Audio Coding 3
Mode extension                 : CM (complete main)
Format settings, Endianness    : Big
Codec ID                       : A_AC3
Duration                       : 21mn 58s
Bit rate mode                  : Constant
Bit rate                       : 384 Kbps
Channel(s)                     : 6 channels
Channel positions              : Front: L C R, Side: L R, LFE
Sampling rate                  : 48.0 KHz
Bit depth                      : 16 bits
Compression mode               : Lossy
Delay relative to video        : 96ms
Stream size                    : 60.3 MiB (6%)
Title                          : INGLES
Language                       : English
Default                        : No
Forced                         : No





Capturas avi 720x416


Video
ID                          : 0
Format                      : MPEG-4 Visual
Format profile              : Advanced [email protected]
Format settings, BVOP       : 1
Format settings, QPel       : No
Format settings, GMC        : No warppoints
Format settings, Matrix     : Custom
Codec ID                    : XVID
Codec ID/Hint               : XviD
Duration                    : 21mn 40s
Bit rate                    : 898 Kbps
Width                       : 720 pixels
Height                      : 416 pixels
Display aspect ratio        : 1.731
Frame rate                  : 23.976 fps
Color space                 : YUV
Chroma subsampling          : 4:2:0
Bit depth                   : 8 bits
Scan type                   : Progressive
Compression mode            : Lossy
Bits/(Pixel*Frame)          : 0.125
Stream size                 : 139 MiB (77%)
Writing library             : XviD 1.2.1 (UTC 2008-12-04)

Audio #1
ID                          : 1
Format                      : AC-3
Format/Info                 : Audio Coding 3
Mode extension              : CM (complete main)
Format settings, Endianness : Big
Codec ID                    : 2000
Duration                    : 21mn 40s
Bit rate mode               : Constant
Bit rate                    : 128 Kbps
Channel(s)                  : 2 channels
Channel positions           : Front: L R
Sampling rate               : 48.0 KHz
Bit depth                   : 16 bits
Compression mode            : Lossy
Stream size                 : 19.8 MiB (11%)
Alignment                   : Split accross interleaves
Interleave, duration        : 42 ms (1.00 video frame)
Interleave, preload duratio : 500 ms

Audio #2
ID                          : 2
Format                      : AC-3
Format/Info                 : Audio Coding 3
Mode extension              : CM (complete main)
Format settings, Endianness : Big
Codec ID                    : 2000
Duration                    : 21mn 40s
Bit rate mode               : Constant
Bit rate                    : 128 Kbps
Channel(s)                  : 2 channels
Channel positions           : Front: L R
Sampling rate               : 48.0 KHz
Bit depth                   : 16 bits
Compression mode            : Lossy
Stream size                 : 19.8 MiB (11%)
Alignment                   : Split accross interleaves
Interleave, duration        : 42 ms (1.00 video frame)
Interleave, preload duratio : 500 ms


The Middle temporada 5dual latino ingles capitulo1
40 Puntos Score: 8/10
Visitas: 1006 Favoritos: 0
Ver los usuarios que votaron...
18 Comentarios The Middle temporada 5dual latino ingles capitulo1
La subiras completa?
Muchas gracias por el capitulo  
alguien sabe donde bajar las temporadas anteriores solo e visto la 1 saludos
@wario_an Estan posteadas a qui en identi y por este mismo usuario para que te aparescan buscala en sus post o en el buscador de identi escribe "Una Familia Modelo"
Me gusto mucho la calidad de 720p yo lo convert?
@Milos521 y cuanto te tardo en convertir, mi pc es un poco vieja me tardaria mas en convertir que en subir el archivo    asi como esta
@juanw200 me tardo como 30 min
Mi laptop no es muy potente deber?
Mil gracias amigo!!! Estaba esperando esta temporada!! Una duda. ?
Gracias Milos521 pero llegue tarde ya no funcionan los link de las temopradas 3 y 4 saludos
@Cesar_Cure ahi esta en avi  como las pasadas
creo que ya no subira mas saludos
@Milos521 @wario_an ya no tengo internet en mi casa, no pude seguir pagandolo ahora estoy  conectado con el wifi de un vecino y la se?
@juanw200 Que mal. Oye pero aun tienes los audios? Yo podria sincronizarlos si me los envias bueno si es que puede
@Milos521 si los tengo pero no me llega buena se?
Gracias de todos modos la intenci?
Para dejar un comentario Registrate! o.. eres ya usuario? Accede!