Oops.. Este post tiene los enlaces eliminados!

Identi revisa las denuncias de los usuarios en busca de enlaces eliminados que no dejan descargar los archivos, este mensaje te informa que este post que estas viendo tiene los enlaces eliminados.

Usa el Buscador

Por favor, te recomendamos que uses el buscador para encontrar más alternativas.

Bates motel temporada 2 capitulo 1 tvrip latino

  • Categoría: Reciclaje
  • Publicado hace más de 1 año
Es una serie de televisión estadounidense a modo de precuela de la mítica película de Alfred Hitchcock Psicosis (1960). Desarrollada por Carlton Cuse, Kerry Ehrin y Anthony Cipriano, Bates Motel está producida por Universal Televisión para la cadena de televisión A&E. En España la serie será estrenada por TNT[sup]1[/sup] mientras que en Latinoamérica la emite Universal Channel[sup]2[/sup] y en México a parte de Universal Channel se emite también por el Canal 5 de Televisa.



Bates Motel retrata la vida de un joven de aspecto frágil llamado Norman Bates y de su posesiva madre Norma, unos años antes de los acontecimientos narrados en Psicosis. La serie, en cambio, se toma algunas licencias en el planteamiento de la trama como la ciudad donde transcurre, que ya no es Fairvale (California) sino White Pine Bay (Oregón) -aunque ambas son localidades inventadas-, y traslada la acción al siglo XXI.


Capturas

Video
ID                             : 0
Format                         : MPEG-4 Visual
Format profile                 : Advanced [email protected]
Format settings, BVOP          : 1
Format settings, QPel          : No
Format settings, GMC           : No warppoints
Format settings, Matrix        : Custom
Codec ID                       : XVID
Codec ID/Hint                  : XviD
Duration                       : 42mn 8s
Bit rate                       : 990 Kbps
Width                          : 720 pixels
Height                         : 416 pixels
Display aspect ratio           : 1.731
Frame rate                     : 23.976 fps
Color space                    : YUV
Chroma subsampling             : 4:2:0
Bit depth                      : 8 bits
Scan type                      : Progressive
Compression mode               : Lossy
Bits/(Pixel*Frame)             : 0.138
Stream size                    : 299 MiB (79%)
Writing library                : XviD 1.2.1 (UTC 2008-12-04)

Audio
ID                             : 1
Format                         : AC-3
Format/Info                    : Audio Coding 3
Mode extension                 : CM (complete main)
Format settings, Endianness    : Big
Codec ID                       : 2000
Duration                       : 42mn 8s
Bit rate mode                  : Constant
Bit rate                       : 256 Kbps
Channel(s)                     : 2 channels
Channel positions              : Front: L R
Sampling rate                  : 48.0 KHz
Bit depth                      : 16 bits
Compression mode               : Lossy
Stream size                    : 77.2 MiB (20%)
Alignment                      : Split accross interleaves
Interleave, duration           : 42 ms (1.00 video frame)
Interleave, preload duration   : 500 ms


Mega
Bates motel temporada 2 capitulo 1 tvrip latino
20 Puntos Score: 10/10
Visitas: 928 Favoritos: 1
Ver los usuarios que votaron...
6 Comentarios Bates motel temporada 2 capitulo 1 tvrip latino
amigo salio en dvd...  si sabes o si alguien quiere paso los rips LATINOS , asi los sincronizan con 720P
jajajaj no la esperaba ta rapido
Gracias Esperando el resto +10
Cita Slipknot1: Mostrar
Hola si los tienes porfavor pasa los rips para sincronizar OK   Ja
@Slipknot1 si los tienes compartelos asi me ahorras el trabajo yo solo los capturare mientras pueda, creo que en netflix tambien saldran nuevos capitulos el otro mes
@nefi40 de nada veremos si antes salen los dvds o en netflix dicen que el otro mes abra capitulos nuevos  
genial gracias muchas gracias  
Para dejar un comentario Registrate! o.. eres ya usuario? Accede!