Terminator Genisys {2015} Cam rip mkv latino


Título original
Terminator Genisys 

Terminator 5

Año
2015
Duración
126 min.
País
Estados Unidos Estados Unidos
Director
Alan Taylor
Guión
Laeta Kalogridis, Patrick Lussier
Música
Christophe Beck
Fotografía
Kramer Morgenthau
Reparto
Emilia Clarke, Arnold Schwarzenegger, Jason Clarke, Jai Courtney, J.K. Simmons, Dayo Okeniyi, Lee Byung-Hun, Matt Smith, Michael Gladis, Sandrine Holt, Natalie Stephany Aguilar, Teri Wyble, Brett Azar, Starlette Miariaunii, Nolan Gross
Productora
Paramount Pictures / Annapurna Pictures / Skydance Productions
Género
Ciencia ficción. Acción | Robots. Años 80


Sinopsis
Año 2032. La guerra del futuro se está librando y un grupo de rebeldes humanos tiene el sistema de inteligencia artificial Skynet contra las cuerdas. John Connor (Jason Clarke) es el líder de la resistencia, y Kyle Reese (Jai Courtney) es su fiel soldado, criado en las ruinas de una postapocalíptica California. Para salvaguardar el futuro, Connor envía a Reese a 1984 para salvar a su madre, Sarah (Emilia Clarke) de un Terminator programado para matarla con el fin de que no llegue a dar a luz a John. Pero lo que Reese encuentra en el otro lado no es como él esperaba.




General
Unique ID                      : 158768035298424853737005741740563140727 (0x77719C80BB17CA61D2F4E6F850AC9077)
Complete name                  : E:jdTerminator Genisys {2015} HDCAM READNFO X264 AC3-MRGTerminator Genisys {2015} HDCAM READNFO X264 AC3-MRG.mkv
Format                         : Matroska
Format version                 : Version 2
File size                      : 823 MiB
Duration                       : 1h 56mn
Overall bit rate               : 985 Kbps
Writing application            : Lavf54.63.104
Writing library                : Lavf54.63.104

Video
ID                             : 1
Format                         : AVC
Format/Info                    : Advanced Video Codec
Format profile                 : [email protected]
Format settings, CABAC         : Yes
Format settings, ReFrames      : 4 frames
Codec ID                       : V_MPEG4/ISO/AVC
Duration                       : 1h 56mn
Bit rate                       : 774 Kbps
Width                          : 720 pixels
Height                         : 480 pixels
Display aspect ratio           : 3:2
Frame rate mode                : Constant
Frame rate                     : 29.970 fps
Standard                       : NTSC
Color space                    : YUV
Chroma subsampling             : 4:2:0
Bit depth                      : 8 bits
Scan type                      : Progressive
Bits/(Pixel*Frame)             : 0.075
Stream size                    : 647 MiB (79%)
Writing library                : x264 core 142 r2491 24e4fed
Encoding settings              : cabac=1 / ref=3 / deblock=1:0:0 / analyse=0x3:0x113 / me=hex / subme=7 / psy=1 / psy_rd=1.00:0.00 / mixed_ref=1 / me_range=16 / chroma_me=1 / trellis=1 / 8x8dct=1 / cqm=0 / deadzone=21,11 / fast_pskip=1 / chroma_qp_offset=-2 / threads=5 / lookahead_threads=1 / sliced_threads=0 / nr=0 / decimate=1 / interlaced=0 / bluray_compat=0 / constrained_intra=0 / bframes=3 / b_pyramid=2 / b_adapt=1 / b_bias=0 / direct=1 / weightb=1 / open_gop=0 / weightp=2 / keyint=250 / keyint_min=25 / scenecut=40 / intra_refresh=0 / rc_lookahead=40 / rc=crf / mbtree=1 / crf=22.0 / qcomp=0.60 / qpmin=0 / qpmax=69 / qpstep=4 / vbv_maxrate=950 / vbv_bufsize=1835 / crf_max=0.0 / nal_hrd=none / filler=0 / ip_ratio=1.40 / aq=1:1.00
Default                        : Yes
Forced                         : No

Audio
ID                             : 2
Format                         : AC-3
Format/Info                    : Audio Coding 3
Mode extension                 : CM (complete main)
Format settings, Endianness    : Big
Codec ID                       : A_AC3
Duration                       : 1h 56mn
Bit rate mode                  : Constant
Bit rate                       : 192 Kbps
Channel(s)                     : 2 channels
Channel positions              : Front: L R
Sampling rate                  : 22.05 KHz
Bit depth                      : 16 bits
Compression mode               : Lossy
Delay relative to video        : 7ms
Stream size                    : 160 MiB (19%)
Default                        : Yes
Forced                         : No


Contraseña del rar    juanw200 
Terminator Genisys {2015} Cam rip mkv latino
26 Puntos Score: 6.5/10
Visitas: 9640 Favoritos: 5
Ver los usuarios que votaron...
23 Comentarios Terminator Genisys {2015} Cam rip mkv latino
hola!!! podes pasar los link??? no los toma ni el J ni el pony
me pasarias el link por mp x favor  
esta quedando viejo el robot de Schwarzenegger
gracias por la movie
Hola, 2 cositas, se ve horrible y no tiene sonido, en resumen una cagada, para subir estas porquerias no hagas nada, chau.  
se agradece  k pongas las capturas   viendolo  haci no la bajo  
murieron los links
hola porfa podrias manar l link l jd no agarra
Cita gastongas: Mostrar
tienes 4 post y te sientes la gran mierda....2 cositas, te ves mal y chinga tu madre, en resumen contrata un buen internet pa que no te pese tanto bajar
Cita VENTAPC: Mostrar
@gastongas si no te gusta no descargues, no me vengas a cagar las bolas ,la pelicula si tiene audio y la calidad es lo que hay, es lo que encontraras por todas partes hasta que salga el original, no seas pendejo esta pelicula aun esta en los cines,por que mejor no te vas a la mierda y ve a verla al cine si quieres calidad
Muchas Gracias por la pelicula, yo consumo lo que hay. Es una tonter?
hola @juanw200 la pelicula no me la reproduce ni el potplayer version ultima y ni el k-lite codec pac mega last version me puedes ayudar por que codec video y audio
tiene por favor la quiero ver @juanw200
@rugal2015 amigo la pelicula es mkv,  deberia de andar con cualquier reproductor, yo uso el media player home cinema y la veo sin problema  probe con potplayer y tambien funciona,fijate si se descargo bien y pusiste bien la contrase?
pues conmigo nunca empezaba la pelicula se quedaba cargardola y nada mas pero extrai los streams de video y audio y cambie el codec de audio pero la pelicula solo se ve hasta el minuto 35:40 segundos de ahi comienza a pasar los creditos y hasta se para la imagen y sigue avanzando el tiempo pero nada mas @juanw200 ni modo la queria ver completa
graciasssssss !!!! luego la descargo  
muy bien  carnal  agradecido
soportable el video, no pod?
pelicula tan nueva y con tanto contra tiempo para descargarla  
Para dejar un comentario Registrate! o.. eres ya usuario? Accede!