New girl temp3 dual latino ingles 720p cap 1 al 10

New girl temp3 dual latino ingles 720p capitulos 1 al 10


Bueno aqui les dejo los primeros 10 capitulos de new gir temporada 3 dual latino 720p WEB-DL,del capitulo 9 para arriba ya no llevaran subtitulos en español,pierdo mucho tiempo en buscar y sincronizar los subtitulos,


New Girl es una serie de televisión estadounidense que se estrenó en Fox  el 20 de septiembre de 2011.2 Está protagonizada por Zooey Deschanel, Jake Johnson, Max Greenfield, Lamorne Morris, y Hannah Simone. El 28 de septiembre de 2011, después de emitirse los dos primeros episodios, Fox encargó el rodaje de 11 episodios adicionales a los 13 que inicialmente estaban planeados, con lo que la primera temporada quedó con 24 episodios.3

La serie comienza con Jessica «Jess» Day (interpretada por Zooey Deschanel), una mujer peculiar y alegre de casi treinta años que da clases en una escuela primaria local de Los Ángeles. Jess comienza a buscar un nuevo lugar para vivir después de descubrir que su novio la engaña. Al ver un anuncio de un nuevo compañero de cuarto en Craigslist, se muda con tres jóvenes: Nick, Schmidt y Coach. Muy poco después de su traslado, Coach se va, y es sustituido por Winston, otro joven que había vivido en el apartamento con Nick y Schmidt.
Capturas


NEW GIRL 720 TEMPORADA 3New.Girl.S03E01.720p.HDTV.X264-DIMENSION LATINO JUANW200.mkv
Format                      : Matroska
Format version              : Version 4 / Version 2
File size                   : 720 MiB
Duration                    : 21mn 41s
Overall bit rate            : 4 642 Kbps
Encoded date                : UTC 2015-04-17 04:38:18
Writing application         : mkvmerge v6.1.0 ('Old Devil') built on Mar  4 2013 09:10:42
Writing library             : libebml v1.3.0 + libmatroska v1.4.0

Video
ID                          : 1
Format                      : AVC
Format/Info                 : Advanced Video Codec
Format profile              : [email protected]
Format settings, CABAC      : Yes
Format settings, ReFrames   : 8 frames
Codec ID                    : V_MPEG4/ISO/AVC
Duration                    : 21mn 41s
Bit rate                    : 3 654 Kbps
Width                       : 1 280 pixels
Height                      : 720 pixels
Display aspect ratio        : 16:9
Frame rate mode             : Constant
Frame rate                  : 23.976 fps
Color space                 : YUV
Chroma subsampling          : 4:2:0
Bit depth                   : 8 bits
Scan type                   : Progressive
Bits/(Pixel*Frame)          : 0.165
Stream size                 : 567 MiB (79%)
Writing library             : x264 core 138 r2358 9e941d1
Encoding settings           : cabac=1 / ref=8 / deblock=1:2:2 / analyse=0x3:0x113 / me=umh / subme=9 / psy=1 / psy_rd=1.00:0.00 / mixed_ref=1 / me_range=24 / chroma_me=1 / trellis=1 / 8x8dct=1 / cqm=0 / deadzone=21,11 / fast_pskip=0 / chroma_qp_offset=-2 / threads=18 / lookahead_threads=2 / sliced_threads=0 / nr=0 / decimate=1 / interlaced=0 / bluray_compat=0 / constrained_intra=0 / bframes=5 / b_pyramid=2 / b_adapt=2 / b_bias=0 / direct=3 / weightb=1 / open_gop=0 / weightp=2 / keyint=250 / keyint_min=23 / scenecut=40 / intra_refresh=0 / rc_lookahead=50 / rc=crf / mbtree=1 / crf=18.0 / qcomp=0.60 / qpmin=0 / qpmax=69 / qpstep=4 / ip_ratio=1.40 / aq=1:1.00
Language                    : English
Default                     : No
Forced                      : No

Audio #1
ID                          : 2
Format                      : AC-3
Format/Info                 : Audio Coding 3
Mode extension              : CM (complete main)
Format settings, Endianness : Big
Codec ID                    : A_AC3
Duration                    : 21mn 41s
Bit rate mode               : Constant
Bit rate                    : 448 Kbps
Channel(s)                  : 2 channels
Channel positions           : Front: L R
Sampling rate               : 48.0 KHz
Bit depth                   : 16 bits
Compression mode            : Lossy
Stream size                 : 69.5 MiB (10%)
Language                    : Latin
Default                     : Yes
Forced                      : Yes

Audio #2
ID                          : 3
Format                      : AC-3
Format/Info                 : Audio Coding 3
Mode extension              : CM (complete main)
Format settings, Endianness : Big
Codec ID                    : A_AC3
Duration                    : 21mn 41s
Bit rate mode               : Constant
Bit rate                    : 448 Kbps
Channel(s)                  : 6 channels
Channel positions           : Front: L C R, Side: L R, LFE
Sampling rate               : 48.0 KHz
Bit depth                   : 16 bits
Compression mode            : Lossy
Stream size                 : 69.5 MiB (10%)
Language                    : English
Default                     : No
Forced                      : No

Text
ID                          : 4
Format                      : UTF-8
Codec ID                    : S_TEXT/UTF8
Codec ID/Info               : UTF-8 Plain Text
Language                    : Latin
Default                     : No
Forced                      : No


MEGA 
New girl temp3 dual latino ingles 720p cap 1 al 10
5 Puntos Score: 5/10
Visitas: 2097 Favoritos: 3
Ver los usuarios que votaron...
17 Comentarios New girl temp3 dual latino ingles 720p cap 1 al 10
Hola amigo Excelente Aporte  
Gracias por los cap?
@Racso_91 de nada
@Madara22x si, voy a ir sincronizando y subiendo, solo los de la temporada 3
Gracias BRo!. No tendras por ahi la segunda temporada que de la primera me estoy saltando a la 3ra  
y los demas capitulos?
@brianmixers por ahora subire la temporada 1 y espero tambien la 2, despues continuo con esta
Cita juanw200: Mostrar
Genial master.. espero las subas pronto desde ya muchas gracias  
para cuando los demas aportes=?
@brianmixers no se, creo que me tomara mas tiempo a lo mejor la subo en partes o 1 al dia no se,ahora estoy un poco ocupado
Bajado todo lo que has compartido   Perfecto.

?
@KinSama no se, ya me dio flojera hacer la sincronizacion apenas llevo 9 capitulos,tratare de sincronizar 2 diarios para no aburrirme.ojala en unas 2 semanas este lista la temporada
Cita juanw200: Mostrar
Entiendo
T?
Gracias amigo, ya nada mas buscare la Temporada 2 eres el Pap?
@juanw200 Cuando vuelves camarada, nadie esta llevando acabo el proyecto "New Girl Latino" espero aun despu?
@MoskaRulo ya me retire, hace 2 meses murio mi papa y ya no me dan ganas de hacer nada , no creo volver nunca mas
@juanw200 Joder broo lamento leer esa noticia, y bueno pues entiendo completamente tu sentir, aun despu?
Para dejar un comentario Registrate! o.. eres ya usuario? Accede!