Castle|S01|10/10|480p|XviD|LATINO-INGLES|MG



Serie de TV (2009-Actualidad). Teleserie de la ABC que mezcla intriga, drama y algo de humor que sigue las andanzas de Richard Castle (Nathan Fillion), un escritor de novelas de misterio cuya inspiración le viene a raíz de las consultas que realiza al departamento de policía de Nueva York, ciudad en la que transcurre la acción. Pero cuando un asesino en serie comienza a reproducir los asesinatos que Rick escribe en su novelas, a Castle no le quedará otro remedio que ayudar al departamento de policía de Nueva York, en el que está la atractiva y brillante detective Kate Beckett (Stana Katic), a intentar atrapar al asesino. En la vida de Castle también hay otras mujeres, como su madre Martha Rodgers (Susan Sullivan), una antigua diva de Broadway, su ex esposa, y su hija adolescente y sabionda Alexis (Molly Quinn).

Título original: Castle (TV Series)
Año: 2009
Duración: 43 min.
País: Estados Unidos
Director: Andrew W. Marlowe (Creator), Rob Bowman, Bryan Spicer, John Terlesky, Bill Roe, Jeff Bleckner, Thomas J. Wright, Paul Holahan, David Barrett, Holly Dale
Guión: Andrew W. Marlowe, Barry Schindel, Terence Paul Winter, David Amann, Elizabeth Beall, Terri Miller, David Grae, Alexi Hawley, Rob Hanning, Moira Kirland, Will Beall
Música: Robert Duncan, Mark Kilian
Fotografía: Bill Roe, Daryn Okada, Michael Slovis, James L. Carter
Reparto: Nathan Fillion, Stana Katic, Susan Sullivan, Jon Huertas, Molly C. Quinn, Tamala Jones, Seamus Dever, Anabelle Acosta, Ruben Santiago-Hudson, Penny Johnson, Victoria Pratt, Mimi Michaels, Jeannette Sousa, Gail O'Grady, Jacqueline MacInnes Wood, Kelly Hu, Michael Dorn, JJ Snyder, Daniella Alonso, Julie Gonzalo, Maya Stojan, Jack Coleman, Azita Ghanizada, Krista Allen, Gina Hiraizumi, Skyler Vallo, Michael Trucco, Lauriane Gilliéron, Candice Patton, Kelly Carlson, Michael Mosley, Parisa Fakhri, Melissa De Sousa, Dan Castellaneta, Abigail Klein, Carly Steel
Productora: Emitida por la cadena ABC; Beacon Pictures
Género: Serie de TV. Comedia. Intriga. Drama | Asesinos en serie
Web oficial: http://abc.go.com/primetime/castle/index?pn=index

Cita: Mostrar





Capitulo 01 - Temporada 01
"Flowers For Your Grave"

"Flores para tu tumba"


Capitulo 02 - Temporada 01
"Nanny McDead"

"La niñera muerta"



Capitulo 03 - Temporada 01
"Hedge Fund Homeboys"

"El chico de los bonos de basura"



Capitulo 04 - Temporada 01
"Hell Hath No Fury"

"Furia infernal"


Capitulo 05 - Temporada 01
"A
Chill Goes Through Her Veins"
"Escalofrío en las venas"



Capitulo 06 - Temporada 01
"
Always Buy Retail"
"Compra siempre bolsos de marca"


Capitulo 07 - Temporada 01
"
Home Is Where the Heart Stops"
"El hogar está allí donde se para el corazón"

Capitulo 08 - Temporada 01
"
Ghosts"
"Fantasmas"



Capitulo 09 - Temporada 01
"
Little Girl Lost"
"La niña perdida"



"NUEVO"
Capitulo 10 - Temporada 01
"
A Death in the Family"
"Una muerte en la familia"



Password: FerF13

Aclaración 1: Esta en calidad DVDRIP 480p (mejor calidad que el post anterior, con dual audio Español Latino - Ingles.

 
Aclaración 2: Sincronizado y Subido por mi.

Aclaración 3: Si te robas mis post da credito, si te robas mis audios da credito.

Aclaración 4: Agradecer no cuesta nada, no exijas y pidas gustos cuanto todo es gratis...
Castle|S01|10/10|480p|XviD|LATINO-INGLES|MG
20 Puntos Score: 10/10
Visitas: 1228 Favoritos: 1
Ver los usuarios que votaron...
14 Comentarios Castle|S01|10/10|480p|XviD|LATINO-INGLES|MG
Excelente amigo, esta muy buena la serie!!!!
Gracias por el aporte men
Subiras las demas temporadas?
yo temgo esta temporada con una resolucion un poco mas grande te dejo los datos
General
Format                         : AVI
Format/Info                    : Audio Video Interleave
File size                      : 354 MiB
Duration                       : 42mn 56s
Overall bit rate               : 1 154 Kbps
Writing application            : MEncoder SVN-r33883(20110719-gcc4.5.2)
Writing library                : MPlayer
Video
ID                             : 0
Format                         : MPEG-4 Visual
Format profile                 : Advanced [email protected]
Format settings, BVOP          : 2
Format settings, QPel          : No
Format settings, GMC           : No warppoints
Format settings, Matrix        : Default (H.263)
Codec ID                       : XVID
Codec ID/Hint                  : XviD
Duration                       : 42mn 56s
Bit rate                       : 1 015 Kbps
Width                          : 854 pixels
Height                         : 480 pixels
Display aspect ratio           : 16:9
Frame rate                     : 20.000 fps
Color space                    : YUV
Chroma subsampling             : 4:2:0
Bit depth                      : 8 bits
Scan type                      : Progressive
Compression mode               : Lossy
Bits/(Pixel*Frame)             : 0.124
Stream size                    : 312 MiB (88%)
Writing library                : XviD 1.2.1 (UTC 2008-12-04)
Audio
ID                             : 1
Format                         : MPEG Audio
Format version                 : Version 1
Format profile                 : Layer 3
Mode                           : Joint stereo
Mode extension                 : MS Stereo
Codec ID                       : 55
Codec ID/Hint                  : MP3
Duration                       : 42mn 54s
Bit rate mode                  : Constant
Bit rate                       : 128 Kbps
Channel(s)                     : 2 channels
Sampling rate                  : 44.1 KHz
Compression mode               : Lossy
Delay relative to video        : 50ms
Stream size                    : 39.3 MiB (11%)
Alignment                      : Aligned on interleaves
Interleave, duration           : 26 ms (0.52 video frame)
Interleave, preload duration   : 522 ms
Writing library                : LAME3.98.4
 
gracias por el aporte  
A la espera de la 2da temporada, ojala que sea pronto gracias  
gran aporte, compartiras la segunda temporada??
excelente aporte
Buen aporte amigo se paso !! descargando !! una pregunta subiras la segunda temporada? saludos
Gracias por la Serie ojala tuvieras las siguientes ^.^
Excelente trabajo, te lo agradezco, no tengo puntos para darte pero te voy a seguir.  
Excelente aporte... gracias por el tiempo y el trabajo de subirlo  
Para dejar un comentario Registrate! o.. eres ya usuario? Accede!