Oops.. Este post tiene los enlaces eliminados!

Identi revisa las denuncias de los usuarios en busca de enlaces eliminados que no dejan descargar los archivos, este mensaje te informa que este post que estas viendo tiene los enlaces eliminados.

Usa el Buscador

Por favor, te recomendamos que uses el buscador para encontrar más alternativas.

El Sicario de Dios - Priest [DvDRip 2011]

  • Categoría: Reciclaje
  • Publicado hace más de 5 años

El Sicario de Dios - Priest [DvDRip 2011]




Título: El sicario de Dios
Título original: Priest in 3D
País: USA
Genero: Terror
Idioma: Inglés con subtitulos en español (separados al video)
Temática: Weird Western, Adaptación Cómic, Vampirismo
Estreno en USA: 13/05/2011
Estreno en España: 06/05/2011
Productora: Screen Gems (Sony)
Director: Scott Stewart
Guión: Cory Goodman (Novela Gráfica de Min-Woo Hyung)
Reparto: Paul Bettany, Cam Gigandet, Maggie Q, Karl Urban, Stephen Moyer, Lily Collins, Christopher Plummer, Brad Dourif, Mädchen Amick, Brad Dourif
Formato : AVI
Formato/Info : Audio Video Interleave
Peso: 1,58 GB
Duracion : 1h 24mn

Formato: MPEG ? 4 Visual
Formato del perfil: Advanced Simple @ L5
Ajustes del formato, BVOP: Sí
Ajustes del formato, Qpel: Sí
La configuración del formato, GMC: No warppoints
La configuración del formato, Matrix: Default ( H.263 )
Modo Muxing: flujo de bits de pic nic
ID Códec: XVID
ID Codec / Pista: XviD
Duración: 1h 23mn
Velocidad de grabación: 2 243 Kbps
Ancho: 720 pixeles
Altura: 304 píxeles
Mostrar la relación de aspecto: 2.35:1
Velocidad de cuadros: 25.000 fps
Espacio de color: YUV
Submuestreo Chroma: 4:2:0
La profundidad de bits: 8 bits
Tipo de exploración: Progresivo
Bits / ( Pixel * cuadro ): 0.410
Stream size: 1.31 GiB ( 83 % )
Escribir la colección: XviD 1.2.1 ( UTC 04/12/2008 )

Audio
ID: 1
Formato: AC- 3
Formato / Info: Audio Coding 3
Extensión modo: CM ( completo principal )
Codec ID: 2000
Duración: 1h 23mn
Poco el modo de tasa: Constante
Velocidad de bits: 448 Kbps
Canal ( s ): 6 canales
Canal posiciones: Frontal: C L I, laterales: L R, LFE
Frecuencia de muestreo: 48,0 KHz
Stream size: 268 MiB ( 17% )
Alineación: Dividir a través de interpolaciones
Intercalar, duración: 40 ms ( 1,00 fotograma de vídeo )
Intercalar, precarga duración: 500 ms

Cuando la noticia de un ataque vampírico y el secuestro de una joven de 18 años en una zona remota llega a oídos de Sacerdote (Paul Bettany), un veterano de guerra, este solicita a los monseñores reinantes permiso para ir en busca de la rehén, su sobrina. Cuando ellos se niegan, rompe sus votos sagrados, desafía las órdenes de sus superiores y se dispone a encontrar a la chica antes de que los vampiros la esclavicen. A su cruzada se une el novio de su sobrina, Hicks (Cam Gigandet), un joven sheriff de gatillo fácil y una antigua sacerdotisa guerrera (Maggie Q) que posee poderes de lucha sobrenaturales.

Pero cuando llegan al desértico pueblo de Jericho, Sacerdote, Hicks y Sacerdotisa se encuentran con una escena de devastación que lleva la marca de los vampiros y con ello una nueva y escalofriante amenaza.











www.identi.li
El Sicario de Dios - Priest [DvDRip 2011]
90 Puntos Score: 8.2/10
Visitas: 5664 Favoritos: 10
Ver los usuarios que votaron...
2 Comentarios El Sicario de Dios - Priest [DvDRip 2011]
Cita osccaar: Mostrar
Para dejar un comentario Registrate! o.. eres ya usuario? Accede!