Jovenes pistoleros dvdrip latino Young Guns (1988)

Título original Young Guns
Año 1988
Duración 102 min.
País Estados Unidos
Director Christopher Cain
Guión John Fusco
Música Anthony Marinelli
Fotografía Dean Semler
Reparto Emilio Estévez, Kiefer Sutherland, Lou Diamond Phillips, Charlie Sheen, Dermot Mulroney, Casey Siemaszko, Terence Stamp, Jack Palance, Terry O'Quinn, Sharon Thomas, Geoffrey Blake, Alice Carter, Thomas Callaway
Productora Warner Bros. Pictures
Género Western 

En una zona fronteriza con México, Tunstall contrata ayudantes para su granja de jóvenes, huidos o vagabundos, a quienes enseña y educa. Entre ellos hay uno con una gran puntería, Billy "el Niño". Tunstall cuenta en el pueblo con competidores codiciosos, que ponen trabas a sus negocios y matan por la espalda sin ningún temor a las consecuencias.



Video
ID                             : 0
Format                         : MPEG-4 Visual
Format profile                 : Advanced [email protected]
Format settings, BVOP          : 1
Format settings, QPel          : No
Format settings, GMC           : No warppoints
Format settings, Matrix        : Custom
Codec ID                       : XVID
Codec ID/Hint                  : XviD
Duration                       : 1h 46mn
Bit rate                       : 1 175 Kbps
Width                          : 720 pixels
Height                         : 416 pixels
Display aspect ratio           : 1.731
Frame rate                     : 23.976 fps
Color space                    : YUV
Chroma subsampling             : 4:2:0
Bit depth                      : 8 bits
Scan type                      : Progressive
Compression mode               : Lossy
Bits/(Pixel*Frame)             : 0.164
Stream size                    : 897 MiB (90%)
Writing library                : XviD 64

Audio
ID                             : 1
Format                         : MPEG Audio
Format version                 : Version 1
Format profile                 : Layer 3
Mode                           : Joint stereo
Mode extension                 : MS Stereo
Codec ID                       : 55
Codec ID/Hint                  : MP3
Duration                       : 1h 46mn
Bit rate mode                  : Constant
Bit rate                       : 128 Kbps
Channel(s)                     : 2 channels
Sampling rate                  : 44.1 KHz
Compression mode               : Lossy
Delay relative to video        : 19ms
Stream size                    : 97.7 MiB (10%)
Alignment                      : Split accross interleaves
Interleave, duration           : 42 ms (1.00 video frame)
Interleave, preload duration   : 500 ms



Mega 
Jovenes pistoleros dvdrip latino Young Guns (1988)
0 Puntos Score: 0/10
Visitas: 2223 Favoritos: 2
2 Comentarios Jovenes pistoleros dvdrip latino Young Guns (1988)
Excelente aporte... Muchisimas gracias compa?
Para dejar un comentario Registrate! o.. eres ya usuario? Accede!