Gridlockd o Vidas En Juego DVDRip Ingles

Para todos aquellos que les gusta el RAP de 2pac les comparto la película GridLockd en su idioma original porque los puristas así lo preferimos pero con subtitulo pegados.



Estos son los datos del archivos 


Format               : MPEG-4

Format profile              : Base Media

Codec ID                    : isom

File size                   : 833 MiB

Duration                    : 1h 31mn

Overall bit rate            : 1 277 Kbps

Cover                       : Yes


Video

ID                          : 1

Format                      : AVC

Format/Info                 : Advanced Video Codec

Format profile              : [email protected]

Format settings, CABAC      : Yes

Format settings, ReFrames   : 2 frames

Codec ID                    : avc1

Codec ID/Info               : Advanced Video Coding

Duration                    : 1h 31mn

Bit rate                    : 888 Kbps

Width                       : 720 pixels

Height                      : 480 pixels

Display aspect ratio        : 4:3

Original display aspect rat : 4:3

Frame rate mode             : Constant

Frame rate                  : 29.970 fps

Standard                    : NTSC

Color space                 : YUV

Chroma subsampling          : 4:2:0

Bit depth                   : 8 bits

Scan type                   : Progressive

Bits/(Pixel*Frame)          : 0.086

Stream size                 : 579 MiB (70%)

Writing library             : x264 core 146 r2538

Language                    : English



Audio

ID                          : 2

Format                      : AC-3

Format/Info                 : Audio Coding 3

Mode extension              : CM (complete main)

Format settings, Endianness : Big

Codec ID                    : ac-3

Duration                    : 1h 31mn

Bit rate mode               : Constant

Bit rate                    : 384 Kbps

Channel(s)                  : 6 channels

Channel positions           : Front: L C R, Side: L R, LFE

Sampling rate               : 48.0 KHz

Bit depth                   : 16 bits

Compression mode            : Lossy

Stream size                 : 250 MiB (30%)

Language                    : English









Pass: identi.li












Gridlockd o Vidas En Juego DVDRip Ingles
10 Puntos Score: 10/10
Visitas: 792 Favoritos: 1
Ver los usuarios que votaron...
3 Comentarios Gridlockd o Vidas En Juego DVDRip Ingles
gracias por subirla!
Para dejar un comentario Registrate! o.. eres ya usuario? Accede!