Priest 2011 R5 LiNE AC3 XViD-EP1C

Priest 2011 R5 LiNE AC3 XViD-EP1C




Sinopsis

Paul Bettany, sacerdote guerrero durante la última Guerra del Vampiro, vive en las amuralladas ciudades distópicas, controladas ahora por la Iglesia, como otro de los tantos habitantes de las mismas. Un suceso inesperado, el secuestro de su sobrina de 18 años, perpetrado por un grupo de vampiros asesinos, hace que el sacerdote tenga que romper los sagrados votos. En su cruzada contra los responsables de tal atropello, es acompañado por el sheriff local, que resulta ser el sobrino de su sobrina y por una Sacerdotisa, que posee habilidades de combate sobrenaturales y miembro de la legión de vampiros asesinos.

::::::::::::  EP1C Presents  ::::::::::::

::File:: Priest.2011.R5.LiNE.AC3.XViD-EP1C

::Video Source:: Pastyr.2011.DVD5
::Audio Source:: Own

::Language:::::: English
::IMDB:::::::::: http://www.imdb.com/title/tt0822847/

A priest disobeys church law to track down the vampires who kidnapped
his niece.

::Specs:::::::::

Format                 : AVI
Format/Info              : Audio Video Interleave
File size                : 1.37 GiB
Duration               : 1h 23mn
Overall bit rate           : 2 338 Kbps
Writing application          : VirtualDubMod 1.5.10.2 (build 2540/release)
Writing library            : VirtualDubMod build 2540/release

Video
ID                   : 0
Format                 : MPEG-4 Visual
Format profile             : Advanced [email protected]
Format settings, BVOP        : Yes
Format settings, QPel        : No
Format settings, GMC         : No warppoints
Format settings, Matrix      : Custom
Codec ID               : XVID
Codec ID/Hint            : XviD
Duration               : 1h 23mn
Bit rate               : 1 880 Kbps
Width                  : 720 pixels
Height                 : 304 pixels
Display aspect ratio         : 2.35:1
Frame rate               : 25.000 fps
Color space              : YUV
Chroma subsampling         : 4:2:0
Bit depth                : 8 bits
Scan type                : Progressive
Bits/(Pixel*Frame)         : 0.344
Stream size              : 1.10 GiB (80%)
Writing library            : XviD 58

Audio
ID                   : 1
Format                 : AC-3
Format/Info              : Audio Coding 3
Mode extension             : CM (complete main)
Codec ID               : 2000
Duration               : 1h 23mn
Bit rate mode            : Constant
Bit rate               : 448 Kbps
Channel(s)               : 6 channels
Channel positions          : Front: L C R, Side: L R, LFE
Sampling rate            : 48.0 KHz
Bit depth                : 16 bits
Video delay              : 16ms
Stream size              : 268 MiB (19%)
Alignment                : Split accross interleaves
Interleave, duration         : 40 ms (1.00 video frame)
Interleave, preload duration   : 500 ms

::NOTES:::::::::
Presents first Priest R5.
Enjoy //EP1C

:: Got something we might be interested in? contact us: [email protected] ::

::::::::::::::::::::::::::::::::  RESPECT  :::::::::::::::::::::::::::::::::
IMAGiNE, Rx, FLAWL3SS, ViSiON, T0XiC, HiVE, bobwhite & All Our Friends!

          ::::::::::::::::  We Are  :::::::::::::::: 
          :::::: Surpassing the usual or ordinary ::::::
::::::::::::::::::    Heroic and impressive in quality    ::::::::::::::::::   
::::::::::::::::::::::::::::::::   EP1C   ::::::::::::::::::::::::::::::::









i-max.vn
Priest 2011 R5 LiNE AC3 XViD-EP1C
25 Puntos Score: 8.3/10
Visitas: 1217 Favoritos: 2
Ver los usuarios que votaron...
0 Comentarios Priest 2011 R5 LiNE AC3 XViD-EP1C
Este post no tiene comentarios. Sea el primero!
Para dejar un comentario Registrate! o.. eres ya usuario? Accede!