WayWard Pines 1X05 [FOX Premium HD][SubsEsp][Mega]





"La Verdad"

Ethan se aventura fuera de Wayward Pines y queda impactado por lo que descubre. Mientras tanto, Theresa se reporta a su nuevo trabajo de bienes raíces y conoce a su primera clienta, quien está tan confusa como Theresa sobre el fantasmal pueblo.
 Ben por su parte, asiste a orientación y aprende de su profesora Megan Fisher la verdad acerca de Wayward Pines.


Video
 ID : 1
 Format : AVC
 Format/Info : Advanced Video Codec
 Format profile : [email protected]
 Format settings, CABAC : Yes
 Format settings, ReFrames : 4 frames
 Codec ID : V_MPEG4/ISO/AVC
 Duration : 44mn 1s
 Bit rate : 6 557 Kbps
 Width : 1 920 pixels
 Height : 1 080 pixels
 Display aspect ratio : 16:9
 Frame rate mode : Constant
 Frame rate : 23.976 fps
 Color space : YUV
 Chroma subsampling : 4:2:0
 Bit depth : 8 bits
 Scan type : Progressive
 Bits/(Pixel*Frame) : 0.132
 Stream size : 2.02 GiB (89%)
 Writing library : x264 core 146 r2538 121396c
 
 Language : English
 Default : Yes
 Forced : No
 Color range : Limited
 Matrix coefficients : BT.709
 
 Audio
 ID : 2
 Format : AC-3
 Format/Info : Audio Coding 3
 Mode extension : CM (complete main)
 Format settings, Endianness : Big
 Codec ID : A_AC3
 Duration : 44mn 1s
 Bit rate mode : Constant
 Bit rate : 640 Kbps
 Channel(s) : 6 channels
 Channel positions : Front: L C R, Side: L R, LFE
 Sampling rate : 48.0 KHz
 Bit depth : 16 bits
 Compression mode : Lossy
 Stream size : 202 MiB (9%)
 Default : Yes
 Forced : No



https://mega.co.nz/#!WcwHWKQS!iTHNRxkFZeGwNR2YgihFBXaHjoswIRcKdWYwfp1WBTo

SUBTITULOS

https://mega.co.nz/#!iYxiBQJI!bJPNWLlZw9cPxCoXpaW5kaJp2gdsWDtCBQhV6PUTlzI

No Paswoords

»El contenido del post es de mi autoría, y/o, es un recopilación de distintas fuentes.«
WayWard Pines 1X05 [FOX Premium HD][SubsEsp][Mega]
40 Puntos Score: 10/10
Visitas: 2081 Favoritos: 3
Ver los usuarios que votaron...
16 Comentarios WayWard Pines 1X05 [FOX Premium HD][SubsEsp][Mega]
Muchas gracias  
como me atrapo esta serie noooo espero que el shamalan cuando la termine no meta cualquiera como suele hacer
gracias
@morrocot xD djaaaajaa xD LO bueno siempre deja desear
@morrocot Se estan traduciendo en breve se sube
Im Waiting..........
Descargando, cuando pueda paso y dejo puntos.  
Cita arielcab: Mostrar
Cita arielcab: Mostrar

Cita arielcab: Mostrar

Cita arielcab: Mostrar

Cita arielcab: Mostrar
gracias bro ..
gracias por el aporte la mejor calidad . saludos !  
Para dejar un comentario Registrate! o.. eres ya usuario? Accede!