Perfect Sisters (2014) [720p/Lite][Dual Latino/Ing



Perfect Sisters (2014) [BRrip/720p/Lite][Dual Latino/Ing]

Título original Perfect Sisters
Año 2014
Duración 101 min.
País Estados Unidos
Director Stanley M. Brooks
Guión Fab Filippo, Adam Till
Música Carmen Rizzo
Fotografía Stéphanie Anne Weber Biron
Reparto Abigail Breslin, James Ruso, Mira Sorvino, Georgie Henley, Frank Adamson, Jeffrey Ballard, Zoë Belkin, Spencer Breslin, Sarah Constible
Productora Julijette
Género Drama | Crimen. Basado en hechos reales. Cine independiente USA


Sinopsis

Nos relata la historia de dos hermanas canadienses que, hartas del alcoholismo de su madre y de sus abusivos novios, planearon el asesinato de su progenitora.



Formato : MP4
Calidad : BRrip
File size : 889 MiB
Duration : 1h 36mn
Overall bit rate : 1 285 Kbps
Idioma : Español Latino / Inglés
Subitutlos : Español .SRT



   Video #1
      ID : 1
      Format : AVC
      Format/Info : Advanced Video Codec
      Format profile : [email protected]
      Duration : 1h 36mn
      Bit rate : 996 Kbps
      Maximum bit rate : 4 594 Kbps
      Width : 1 280 pixels
      Height : 720 pixels
      Display aspect ratio : 16:9
      Frame rate mode : Constant
      Frame rate : 25.000 fps
      Bit depth : 8 bits
      Scan type : Progressive
      Stream size : 689 MiB (77%)


Audio #3
      ID : 3
      Format : AC-3
      Duration : 1h 36mn
      Bit rate mode : Constant
      Bit rate : 192 Kbps
      Maximum bit rate : 203 Kbps
      Channel(s) : 2 channels
      Channel positions : Front: L R
      Sampling rate : 48.0 KHz
      Bit depth : 16 bits
     Stream size : 133 MiB (15%)
     Language : Spanish

   Audio #2
      ID : 2
      Format : AAC
      Duration : 1h 36mn
      Bit rate mode : Variable
      Bit rate : 93.5 Kbps
      Maximum bit rate : 101 Kbps
      Channel(s) : 2 channels
      Channel positions : Front: L R
      Sampling rate : 48.0 KHz
      Compression mode : Lossy
      Stream size : 64.7 MiB (7%)
      Language : English









DESCARGA

MEGA




Zippyshare
 
Perfect Sisters (2014) [720p/Lite][Dual Latino/Ing
63 Puntos Score: 7.9/10
Visitas: 4437 Favoritos: 4
Ver los usuarios que votaron...
8 Comentarios Perfect Sisters (2014) [720p/Lite][Dual Latino/Ing
Excelente   Gracias
Muchas gracias +10 por las minitas  
Abigail Breslin se puso muy chula . ?
descargada muchas gracias
gracias!!! toca verla este fin
Links funcionando a fecha 27-9-2015. escelente aporte, muchisimas gracias. te sigo y a favs para cuando pueda darte puntos.
2-12-2016 y aun funcionando. toma tus +10 bien merecidos.
Para dejar un comentario Registrate! o.. eres ya usuario? Accede!