Co2 - Animación Francesa (AVI)

Co2

Animación Francesa

(AVI) 







Es una serie animada francesa creada en el 2004 por Philippe Alessandri, Dirigida por Michaël Armellino, Marie-Cécile Labatat & Franck Eckinci, Música de Alexandre Azaria, Co-producida por Tele Images Kids & Je Suis Bien Content for MCM & Canal Jimmy.


Integran Co2: Carl, el guitarrista; Dodile, la cantante; y Dolaf, el baterista. Peculiares personajes que le dan vida a las situaciones, narradas con un toque de humor y sarcasmo. Fue transmitida en 2004 en las pantallas francesas, gozando de un éxito aceptable, sobre todo por el selecto círculo de aficionados a la animación.



Especificaciones:


File size                      : 379 MiB
Duration                       : 52mn 12s
Overall bit rate               : 1 015 Kbps
Writing library                : VirtualDub build 23774/release

Video
ID                             : 0
Format                         : MPEG-4 Visual
Format settings, BVOP          : 1
Format settings, QPel          : No
Format settings, GMC           : No warppoints
Format settings, Matrix        : Default (H.263)
Muxing mode                    : Packed bitstream
Codec ID                       : DX50
Codec ID/Hint                  : DivX 5
Duration                       : 52mn 12s
Bit rate                       : 779 Kbps
Width                          : 352 pixels
Height                         : 240 pixels
Display aspect ratio           : 3:2
Frame rate                     : 29.970 fps
Standard                       : NTSC
Color space                    : YUV
Chroma subsampling             : 4:2:0
Bit depth                      : 8 bits
Scan type                      : Progressive
Compression mode               : Lossy
Bits/(Pixel*Frame)             : 0.308
Stream size                    : 291 MiB (77%)
Writing library                : DivX 6.8.0 (UTC 2007-12-04)

Audio
ID                             : 1
Format                         : MPEG Audio
Format version                 : Version 1
Format profile                 : Layer 2
Codec ID                       : 50
Duration                       : 52mn 11s
Bit rate mode                  : Constant
Bit rate                       : 224 Kbps
Channel(s)                     : 2 channels
Sampling rate                  : 44.1 KHz
Compression mode               : Lossy
Stream size                    : 83.6 MiB (22%)
Alignment                      : Split accross interleaves
Interleave, duration           : 33 ms (1.00 video frame)
Interleave, preload duration   : 500 ms




Este archivo de video lo descargue hace unos años y me gustaría compartirlo con la comunidad. Aclaro que yo no lo grabe y edite y le agradezco infinitamente a quien lo hizo y lo subió a la red. Por su esfuerzo previo lo vuelvo a poner en circulación en este portal para mantener vivo el trabajo de aquel usuario que lo compartió con nosotros.




Links de descarga:









Archivo RAR sin contraseña
Co2 - Animación Francesa (AVI)
5 Puntos Score: 5/10
Visitas: 971 Favoritos: 2
Ver los usuarios que votaron...
2 Comentarios Co2 - Animación Francesa (AVI)
Nunca me ha desanimado una animaci?
Genial aporte
saludos  
Para dejar un comentario Registrate! o.. eres ya usuario? Accede!