Oops.. Este post tiene los enlaces eliminados!

Identi revisa las denuncias de los usuarios en busca de enlaces eliminados que no dejan descargar los archivos, este mensaje te informa que este post que estas viendo tiene los enlaces eliminados.

Usa el Buscador

Por favor, te recomendamos que uses el buscador para encontrar más alternativas.

Tambien la Lluvia [2010] [HD1080p] Castellano

  • Categoría: Reciclaje
  • Publicado hace más de 5 años
Tambien la Lluvia [2010] [HD1080p] Castellano


Idioma: Español
Director: Icíar Bollaín
Guión: Paul Laverty
Género: Drama
Reparto: Luis Tosar, Gael García Bernal, Karra Elejalde, Juan Carlos Aduviri, Raúl Arévalo

Cochabamba, Bolivia. Año 2000. Sebastián (Gael Garcia Bernal) y Costa (Luis Tosar) se han propuesto hacer una película sobre Cristóbal Colón y el descubrimiento de América. Mientras que Sebastián, el director, pretende desmitificar al personaje presentándolo como un hombre ambicioso y sin escrúpulos; a Costa, el productor, sólo le importa ajustar la película al modesto presupuesto del que disponen; precisamente por eso elige Bolivia, por ser uno de los países más baratos y con mayor población indígena de Hispanoamérica. La película se rueda en Cochabamba, donde la privatización y venta del agua a una multinacional siembra entre la población un malestar tal que hará estallar la tristemente famosa Guerra Boliviana del Agua (abril del año 2000). Quinientos años después del descubrimiento de América, palos y piedras se enfrentan de nuevo al acero y la pólvora de un ejército moderno. Pero esta vez no se lucha por el oro, sino por el más imprescindible de los elementos vitales: el agua.

Fuente: BDRip Full HD 1080p

General
Complete name            :
Tambien La Lluvia HDRip Castellano AC3 5.1[supremo12345].avi
Format                 : AVI
Format/Info              : Audio Video Interleave
File size                : 1.44 GiB
Duration               : 1h 42mn
Overall bit rate           : 2 011 Kbps

Video
ID                   : 0
Format                 : MPEG-4 Visual
Format profile             : Advanced [email protected]
Format settings, BVOP        : Yes
Format settings, QPel        : No
Format settings, GMC         : No warppoints
Format settings, Matrix      : Default (H.263)
Codec ID               : XVID
Codec ID/Hint            : XviD
Duration               : 1h 42mn
Bit rate               : 1 362 Kbps
Width                  : 768 pixels
Height                 : 326 pixels
Display aspect ratio         : 2.35:1
Frame rate               : 24.000 fps
Color space              : YUV
Chroma subsampling         : 4:2:0
Bit depth                : 8 bits
Scan type                : Progressive
Compression mode           : Lossy
Bits/(Pixel*Frame)         : 0.227
Stream size              : 1 000 MiB (68%)
Writing library            : XviD 1.2.1 (UTC 2008-12-04)

Audio
ID                   : 1
Format                 : AC-3
Format/Info              : Audio Coding 3
Codec ID               : 2000
Duration               : 1h 42mn
Bit rate mode            : Constant
Bit rate               : 640 Kbps
Channel(s)               : 6 channels
Sampling rate            : 48.0 KHz
Bit depth                : 16 bits
Compression mode           : Lossy
Stream size              : 470 MiB (32%)
Alignment                : Aligned on interleaves
Interleave, duration         : 42 ms (1.00 video frame)



www.identi.es
Tambien la Lluvia [2010] [HD1080p] Castellano
7 Puntos Score: 3.5/10
Visitas: 2807 Favoritos: 0
Ver los usuarios que votaron...
0 Comentarios Tambien la Lluvia [2010] [HD1080p] Castellano
Este post no tiene comentarios. Sea el primero!
Para dejar un comentario Registrate! o.. eres ya usuario? Accede!