Ghost In The Shell 2: Innocence [BDMV][BD25]





Hola, hace un tiempo descargue y modifique este bluray de Ghost In The Shell 2: Innocence,
? Modifiqué el menú para agregar idioma Español Castellano y Subtitulos del mismo Idioma
? Cambié el idioma Ingles UK por Spanish Castillian
? Cambié los subtitulos en Ingles por subtitulos por Español
? Los extras y demás, como no tengo los subs en español, los dejo en ingles

Tomaría capturas del menú pero no se otra forma que no sea tomándolas con el móvil jajajaja

El bluray esta listo para quemar y que lo guardes
Saludos y los dejo con el post




Ficha Técnica:

? PAÍS: Japón
? DIRECCIÓN: Mamoru Oshii
? GÉNERO: Robots| Drama |Ciencia Ficción
? TAMAÑO: 20,9 GB
? IDIOMA: Castellano-Japones
? DURACIÓN: 1:40:00 Mn
? SUBTÍTULOS: Si, Español
? FORMATO: Bluray 25
? RESOLUCIÓN: 1920x1080

Información del Bluray
Format                                   : BDAV
Format/Info                              : Blu-ray Video
File size                                : 19.4 GiB
Duration                                 : 1h 40mn
Overall bit rate mode                    : Variable
Overall bit rate                         : 27.7 Mbps
Maximum Overall bit rate                 : 35.5 Mbps

Video
ID                                       : 4113 (0x1011)
Menu ID                                  : 1 (0x1)
Format                                   : AVC
Format/Info                              : Advanced Video Codec
Format profile                           : [email protected]
Format settings, CABAC                   : Yes
Format settings, ReFrames                : 3 frames
Format settings, GOP                     : M=3, N=12
Codec ID                                 : 27
Duration                                 : 1h 40mn
Bit rate mode                            : Variable
Bit rate                                 : 24.7 Mbps
Maximum bit rate                         : 36.0 Mbps
Width                                    : 1 920 pixels
Height                                   : 1 080 pixels
Display aspect ratio                     : 16:9
Frame rate                               : 23.976 fps
Standard                                 : NTSC
Color space                              : YUV
Chroma subsampling                       : 4:2:0
Bit depth                                : 8 bits
Scan type                                : Progressive
Bits/(Pixel*Frame)                       : 0.496
Stream size                              : 17.3 GiB (89%)

Audio #1
ID                                       : 4352 (0x1100)
Menu ID                                  : 1 (0x1)
Format                                   : AC-3
Format/Info                              : Audio Coding 3
Mode extension                           : CM (complete main)
Format settings, Endianness              : Big
Codec ID                                 : 129
Duration                                 : 1h 40mn
Bit rate mode                            : Constant
Bit rate                                 : 640 Kbps
Channel(s)                               : 6 channels
Channel positions                        : Front: L C R, Side: L R, LFE
Sampling rate                            : 48.0 KHz
Bit depth                                : 16 bits
Compression mode                         : Lossy
Stream size                              : 460 MiB (2%)

Audio #2
ID                                       : 4353 (0x1101)
Menu ID                                  : 1 (0x1)
Format                                   : AC-3
Format/Info                              : Audio Coding 3
Mode extension                           : CM (complete main)
Format settings, Endianness              : Big
Codec ID                                 : 129
Duration                                 : 1h 40mn
Bit rate mode                            : Constant
Bit rate                                 : 448 Kbps
Channel(s)                               : 6 channels
Channel positions                        : Front: L C R, Side: L R, LFE
Sampling rate                            : 48.0 KHz
Bit depth                                : 16 bits
Compression mode                         : Lossy
Stream size                              : 322 MiB (2%)

Audio #3
ID                                       : 4354 (0x1102)
Menu ID                                  : 1 (0x1)
Format                                   : AC-3
Format/Info                              : Audio Coding 3
Mode extension                           : CM (complete main)
Format settings, Endianness              : Big
Codec ID                                 : 129
Duration                                 : 1h 40mn
Bit rate mode                            : Constant
Bit rate                                 : 640 Kbps
Channel(s)                               : 6 channels
Channel positions                        : Front: L C R, Side: L R, LFE
Sampling rate                            : 48.0 KHz
Bit depth                                : 16 bits
Compression mode                         : Lossy
Stream size                              : 460 MiB (2%)

Audio #4
ID                                       : 4355 (0x1103)
Menu ID                                  : 1 (0x1)
Format                                   : AC-3
Format/Info                              : Audio Coding 3
Mode extension                           : CM (complete main)
Format settings, Endianness              : Big
Codec ID                                 : 129
Duration                                 : 1h 40mn
Bit rate mode                            : Constant
Bit rate                                 : 192 Kbps
Channel(s)                               : 2 channels
Channel positions                        : Front: L R
Sampling rate                            : 48.0 KHz
Bit depth                                : 16 bits
Compression mode                         : Lossy
Stream size                              : 138 MiB (1%)

Text #1
ID                                       : 4608 (0x1200)
Menu ID                                  : 1 (0x1)
Format                                   : PGS
Codec ID                                 : 144

Text #2
ID                                       : 4609 (0x1201)
Menu ID                                  : 1 (0x1)
Format                                   : PGS
Codec ID                                 : 144

Text #3
ID                                       : 4610 (0x1202)
Menu ID                                  : 1 (0x1)
Format                                   : PGS
Codec ID                                 : 144





SINOPSIS 

Batou investiga tres asesinatos recientemente sucedidos en un callejón a manos de una muñeca sexual. Al encontrase con la asesina, Batou verá que algo no concuerda, pues la muñeca ginoide intenta suicidarse pidiendo ayuda.
Daisuke Aramaki ordenará a Batou y Togusa investigar este caso para conocer si puede tener relación alguna para ser llevado por la Sección 9. En otro asesinato ligado al caso Batou encontrará dentro de un libro la fotografía holográfica del rostro de una niña. Esto llevará a Batou a investigar casi por cuenta propia el caso hasta llegar a la fábrica en donde se crean a las ginoides, allí le sorprenderá su ángel de la guarda.







Capturas




















PD: Si alguien tiene el BD25 de la primera que me lo pase y con gusto lo edito
PD2: Estoy subiendo El Jardín de las palabras(Versión de Selecta Visión) espero tenerla lista pronto.
Saludos!
Ghost In The Shell 2: Innocence [BDMV][BD25]
40 Puntos Score: 10/10
Visitas: 1878 Favoritos: 7
Ver los usuarios que votaron...
9 Comentarios Ghost In The Shell 2: Innocence [BDMV][BD25]
Wilkommen by Identi, ..
jajajajaja me gusto el nombre que le diste... gracias capo hace tiempo que la buscaba en BD25; tengo entendido que la primera la rehicieron, por as?
Muchas Gracias por el aporte. Amigo ?
Cita coloso: Mostrar
Que mierda que no pueda dar puntos te los mereces
Este post merece puntos.
Excelente  

 
hola gracias por tu aporte tendria el making off ? . solo busco eso.
saludo
Para dejar un comentario Registrate! o.. eres ya usuario? Accede!