AD The Bible Continues s1-e3


Hola [email protected] de Identi,hoy les comparto esta fantástica serie que recientemente a salido.Espero que las disfruten.


!!Ha por cierto , no soy de los que suben a menudo cosas, ya que mi conexión a int. es media lenta.. pero cuando tengo la posibilidad de compartirles algo lo hago .... !!





Un poco de info.










































Info. Media

General
Name                  : A.D.The.Bible.Continues.S01E03
Format                         : MPEG-4
Format profile                 : Base Media
Codec ID                       : isom
File size                      : 306 MiB
Duration                       : 42mn 17s
Overall bit rate mode          : Variable
Overall bit rate               : 1 012 Kbps
Encoded date                   : UTC 2015-04-19 19:27:17
Tagged date                    : UTC 2015-04-19 19:27:17

Video
ID                             : 1
Format                         : AVC
Format/Info                    : Advanced Video Codec
Format profile                 : [email protected]
Format settings, CABAC         : Yes
Format settings, ReFrames      : 5 frames
Codec ID                       : avc1
Codec ID/Info                  : Advanced Video Coding
Duration                       : 42mn 17s
Bit rate                       : 882 Kbps
Maximum bit rate               : 3 288 Kbps
Width                          : 720 pixels
Height                         : 404 pixels
Display aspect ratio           : 16:9
Frame rate mode                : Constant
Frame rate                     : 23.976 fps
Color space                    : YUV
Chroma subsampling             : 4:2:0
Bit depth                      : 8 bits
Scan type                      : Progressive
Bits/(Pixel*Frame)             : 0.126
Stream size                    : 267 MiB (87%)
Writing library                : x264 core 146 r2538 121396c


Audio
ID                             : 2
Language                   :English
Subtitule                   :Spanish 
Format                         : AAC
Format/Info                    : Advanced Audio Codec
Format profile                 : LC
Codec ID                       : 40
Duration                       : 42mn 17s
Bit rate mode                  : Variable
Bit rate                       : 126 Kbps
Maximum bit rate               : 147 Kbps
Channel count                  : 2 channels
Channel positions              : Front: L R
Sampling rate                  : 48.0 KHz
Compression mode               : Lossy
Stream size                    : 38.0 MiB (12%)




Un poco mas de info.

? NBC-oficial
? Facebook 



Bueno lo que todos esperan !!!







De Yapa


A.D. The Bible Continues: Music Inspired By The Epic NBC (2015)




Media info


Artist: VA
Album: A.D. The Bible Continues: Music Inspired By The Epic NBC (2015)
Release Date: March 10, 2015
Genres: Pop, Worship, Contemporary
Format | Bitrate: MP3 | 320 Kbps
Size: 101 Mb

Tracklist:

01. Where It All Begins - Francesca Battistelli
02. Power Of The Cross - About a Mile
03. Stronger - Dara Maclean
04. He Said (feat. Chris August) - Group 1 Crew
05. What A Promise - Love & The Outcome
06. Unashamed Of You - Chris August
07. Give My Life Away - Big Daddy Weave
08. Nothing's Gonna Stop Us - Sidewalk Prophets
09. Take This City (Feat. Joel Of For King & Country) - Everfound
10. Hole In The World - Point Of Grace
11. Worth It All - Meredith Andrews
12. By Our Love - for KING & COUNTRY








onyx018





Por cierto si necesitan "Recursos Cristianos" (ej  : libros,series,películas,imágenes,software y demás) me avisan por MP o en los comentarios!!!



Bueno amigos eso seria todo; les ruego que no vean esto como una religión, porque NO lo es ,quiero que vean  (en una versión cinematográfica) el verdadero Amor ,Sacrificio que alguien Ya hizo por TODOS .Si pueden y Se los agradecería ,que compartan este material con sus amigos , conocidos ,familiares , y hagan conocer la Verdad.(Por cierto si esto no te interesa , lo lamento mucho , le ruego a Dios que el que lea esto , Él ,que es fiel y verdadero , pueda hablarte y tu a Él )
Saludos y Bendiciones!!!


AD The Bible Continues s1-e3
0 Puntos Score: 0/10
Visitas: 505 Favoritos: 0
3 Comentarios AD The Bible Continues s1-e3
:up:EXCELENTE SERIE ?
por favor pasa los enlaces sin necesidad del Jdowloader muchos no lo usamos
 
@Sparta777 si la tengo .. pero creo q no son serie sino peliculas ,siqueres las subo
@soldado1 lo siento bro , es la unica manera q duren los enlace ... usa  el mi pony  ,yo lo utilizo con ese soft , Saludos !!
Para dejar un comentario Registrate! o.. eres ya usuario? Accede!