New girl temporada 3 dual latino ingles 720p cap2

New girl temporada 3 dual latino ingles 720p capitulo 2 
Empezare a sincronizar en latino la temporada 3 de new girl en 720p, espero en los proximos dias subir mas a como los vaya sincronizando y descargando,antes les queria pregunta si este que subi son los de mejor calidad lo descargue por torrent algunos traen logos de el canal fox no se si habra sin logos como este que subi y de mayor calidad, si alguien sabe que deje su comentario

New Girl es una serie de televisión estadounidense que se estrenó en Fox  el 20 de septiembre de 2011.2 Está protagonizada por Zooey Deschanel, Jake Johnson, Max Greenfield, Lamorne Morris, y Hannah Simone. El 28 de septiembre de 2011, después de emitirse los dos primeros episodios, Fox encargó el rodaje de 11 episodios adicionales a los 13 que inicialmente estaban planeados, con lo que la primera temporada quedó con 24 episodios.3

La serie comienza con Jessica «Jess» Day (interpretada por Zooey Deschanel), una mujer peculiar y alegre de casi treinta años que da clases en una escuela primaria local de Los Ángeles. Jess comienza a buscar un nuevo lugar para vivir después de descubrir que su novio la engaña. Al ver un anuncio de un nuevo compañero de cuarto en Craigslist, se muda con tres jóvenes: Nick, Schmidt y Coach. Muy poco después de su traslado, Coach se va, y es sustituido por Winston, otro joven que había vivido en el apartamento con Nick y Schmidt.
Capturas 


NEW GIRL 720 TEMPORADA 3New.Girl.S03E02.720p.HDTV.X264-DIMENSION LATINO JUANW200.mkv
Format                      : Matroska
Format version              : Version 4 / Version 2
File size                   : 667 MiB
Duration                    : 21mn 43s
Overall bit rate            : 4 294 Kbps
Encoded date                : UTC 2015-04-21 09:28:50
Writing application         : mkvmerge v6.1.0 ('Old Devil') built on Mar  4 2013 09:10:42
Writing library             : libebml v1.3.0 + libmatroska v1.4.0

Video
ID                          : 1
Format                      : AVC
Format/Info                 : Advanced Video Codec
Format profile              : [email protected]
Format settings, CABAC      : Yes
Format settings, ReFrames   : 9 frames
Codec ID                    : V_MPEG4/ISO/AVC
Duration                    : 21mn 43s
Bit rate                    : 3 313 Kbps
Width                       : 1 280 pixels
Height                      : 720 pixels
Display aspect ratio        : 16:9
Frame rate mode             : Constant
Frame rate                  : 23.976 fps
Color space                 : YUV
Chroma subsampling          : 4:2:0
Bit depth                   : 8 bits
Scan type                   : Progressive
Bits/(Pixel*Frame)          : 0.150
Stream size                 : 515 MiB (77%)
Writing library             : x264 core 138 r2358 9e941d1
Encoding settings           : cabac=1 / ref=9 / deblock=1:1:1 / analyse=0x3:0x133 / me=umh / subme=10 / psy=1 / psy_rd=1.00:0.00 / mixed_ref=1 / me_range=24 / chroma_me=1 / trellis=2 / 8x8dct=1 / cqm=0 / deadzone=21,11 / fast_pskip=0 / chroma_qp_offset=-2 / threads=16 / lookahead_threads=1 / sliced_threads=0 / nr=0 / decimate=1 / interlaced=0 / bluray_compat=0 / constrained_intra=0 / bframes=5 / b_pyramid=2 / b_adapt=2 / b_bias=0 / direct=3 / weightb=1 / open_gop=0 / weightp=2 / keyint=250 / keyint_min=23 / scenecut=40 / intra_refresh=0 / rc_lookahead=60 / rc=crf / mbtree=1 / crf=18.0 / qcomp=0.60 / qpmin=0 / qpmax=69 / qpstep=4 / ip_ratio=1.40 / aq=1:1.00
Language                    : English
Default                     : No
Forced                      : No
Matrix coefficients         : BT.709
Color range                 : Limited

Audio #1
ID                          : 2
Format                      : AC-3
Format/Info                 : Audio Coding 3
Mode extension              : CM (complete main)
Format settings, Endianness : Big
Codec ID                    : A_AC3
Duration                    : 21mn 43s
Bit rate mode               : Constant
Bit rate                    : 448 Kbps
Channel(s)                  : 2 channels
Channel positions           : Front: L R
Sampling rate               : 48.0 KHz
Bit depth                   : 16 bits
Compression mode            : Lossy
Stream size                 : 69.6 MiB (10%)
Language                    : Latin
Default                     : Yes
Forced                      : Yes

Audio #2
ID                          : 3
Format                      : AC-3
Format/Info                 : Audio Coding 3
Mode extension              : CM (complete main)
Format settings, Endianness : Big
Codec ID                    : A_AC3
Duration                    : 21mn 43s
Bit rate mode               : Constant
Bit rate                    : 448 Kbps
Channel(s)                  : 6 channels
Channel positions           : Front: L C R, Side: L R, LFE
Sampling rate               : 48.0 KHz
Bit depth                   : 16 bits
Compression mode            : Lossy
Stream size                 : 69.6 MiB (10%)
Language                    : English
Default                     : No
Forced                      : No

Text
ID                          : 4
Format                      : UTF-8
Codec ID                    : S_TEXT/UTF8
Codec ID/Info               : UTF-8 Plain Text
Language                    : Latin
Default                     : No
Forced                      : No







Si te perdiste el capitulo anterior aqui esta
http://www.identi.li/index.php?topic=372346
New girl temporada 3 dual latino ingles 720p cap2
0 Puntos Score: 0/10
Visitas: 1296 Favoritos: 1
5 Comentarios New girl temporada 3 dual latino ingles 720p cap2
hola amigo quisiera saber en q canal lo estan pasando en latino
Cita crissnick: Mostrar
EN AZTECA 7 A LAS 11:00 O A LAS 10:30 NO RECUERDO
Hola amigo excelente aporte   . oye!! Amigo no tienes la temporada 2 en esta calidad me interesa mucho  
@Racso_91 no, pero tengo los tv rip solo seria sincronizar el audio latino, pero por ahora no he tenido tiempo y los audios tienen peque?
Para dejar un comentario Registrate! o.. eres ya usuario? Accede!