Los Angeles de Charly 1 y 2 - Brrip - Dual





Hola amigos de Identi... Estoy de regreso después de perder 1 Tera en películas y adicional que todos los link de mis post se cayeran.  Estoy consiguiendo nuevamente las películas que ya había publicado pero con mejor calidad... por favor esperen...



En esta ocasión traigo dos películas con tres mujeres hermosas!!!..



Espero que la disfruten.... 






LOS ANGELES DE CHARLY







LOS ANGELES DE CHARLY AL LIMITE









SINOPSIS




Los Ángeles de Charlie (Charlie's Angels en inglés) es una película de acción y comedia dirigida por Joseph McGinty Nichol. Está basada en la serie de televisión de los años 70 Los ángeles de Charlie.

Sus protagonistas fueron: Cameron Diaz, Drew Barrymore y Lucy Liu, interpretando a los tres "ángeles"; Bill Murray interpretó a John Bosley, Sam Rockwell a Eric Knox y John Forsythe, actor de la serie original, a Charlie. Los ángeles de Charlie fue seguido por una secuela, Charlie's Angels: Full Throttle (Los ángeles de Charlie: Al límite), con el ya fallecido Bernie Mac como John Bosley y Demi Moore como Madison Lee.

                                                                                                                                (Tomado de Wikipedia)








MEDIA INFO


Esa es la ficha técnica sacada de la película, se informa formato, peso, calidad, duración, Bit rate y demás datos que son necesarios para conocer la calidad real de la misma, para aquellos siempre solicitan datos puntuales:


LOS ANGELES DE CHARLY





General
Format                                   : Matroska
Format version                           : Version 4 / Version 2
File size                                : 1.67 GiB
Duration                                 : 1h 38mn
Overall bit rate                         : 2 424 Kbps
Encoded date                             : UTC 2015-03-30 02:37:53
Writing application                      : mkvmerge v6.3.0 ('You can't stop me!') built on Jun 28 2013 20:09:41
Writing library                          : libebml v1.3.0 + libmatroska v1.4.0

Video
ID                                       : 1
Format                                   : AVC
Format/Info                              : Advanced Video Codec
Format profile                           : [email protected]
Format settings, CABAC                   : Yes
Format settings, ReFrames                : 5 frames
Codec ID                                 : V_MPEG4/ISO/AVC
Duration                                 : 1h 38mn
Nominal bit rate                         : 1 948 Kbps
Width                                    : 1 920 pixels
Height                                   : 800 pixels
Display aspect ratio                     : 2.40:1
Frame rate mode                          : Constant
Frame rate                               : 23.976 fps
Color space                              : YUV
Chroma subsampling                       : 4:2:0
Bit depth                                : 8 bits
Scan type                                : Progressive
Bits/(Pixel*Frame)                       : 0.053
Writing library                          : x264 core 125 r2200 999b753
Default                                  : Yes
Forced                                   : No

Audio #1
ID                                       : 2
Format                                   : AC-3
Format/Info                              : Audio Coding 3
Mode extension                           : CM (complete main)
Format settings, Endianness              : Big
Codec ID                                 : A_AC3
Duration                                 : 1h 38mn
Bit rate mode                            : Constant
Bit rate                                 : 384 Kbps
Channel count                            : 6 channels
Channel positions                        : Front: L C R, Side: L R, LFE
Sampling rate                            : 44.1 KHz
Bit depth                                : 16 bits
Compression mode                         : Lossy
Stream size                              : 270 MiB (16%)
Title                                    : Español Latino
Default                                  : Yes
Forced                                   : Yes

Audio #2
ID                                       : 3
Format                                   : AAC
Format/Info                              : Advanced Audio Codec
Format profile                           : LC
Codec ID                                 : A_AAC
Duration                                 : 1h 38mn
Channel count                            : 2 channels
Channel positions                        : Front: L R
Sampling rate                            : 48.0 KHz
Compression mode                         : Lossy
Title                                    : Inglés
Language                                 : English
Default                                  : No
Forced                                   : No

Text
ID                                       : 4
Format                                   : UTF-8
Codec ID                                 : S_TEXT/UTF8
Codec ID/Info                            : UTF-8 Plain Text
Title                                    : Español
Default                                  : No
Forced                                   : No







LOS ANGELES DE CHARLY AL LIMITE





General

Format                                   : Matroska

Format version                           : Version 4 / Version 2

File size                                : 1.89 GiB

Duration                                 : 1h 47mn

Overall bit rate                         : 2 523 Kbps

Encoded date                             : UTC 2015-03-30 02:42:33

Writing application                      : mkvmerge v6.3.0 ('You can't stop me!') built on Jun 28 2013 20:09:41

Writing library                          : libebml v1.3.0 + libmatroska v1.4.0


Video

ID                                       : 1

Format                                   : AVC

Format/Info                              : Advanced Video Codec

Format profile                           : [email protected]

Format settings, CABAC                   : Yes

Format settings, ReFrames                : 5 frames

Codec ID                                 : V_MPEG4/ISO/AVC

Duration                                 : 1h 47mn

Nominal bit rate                         : 2 042 Kbps

Width                                    : 1 920 pixels

Height                                   : 800 pixels

Display aspect ratio                     : 2.40:1

Frame rate mode                          : Constant

Frame rate                               : 23.976 fps

Color space                              : YUV

Chroma subsampling                       : 4:2:0

Bit depth                                : 8 bits

Scan type                                : Progressive

Bits/(Pixel*Frame)                       : 0.055

Writing library                          : x264 core 130 r2273 b3065e6

Default                                  : Yes

Forced                                   : No


Audio #1

ID                                       : 2

Format                                   : AC-3

Format/Info                              : Audio Coding 3

Mode extension                           : CM (complete main)

Format settings, Endianness              : Big

Codec ID                                 : A_AC3

Duration                                 : 1h 47mn

Bit rate mode                            : Constant

Bit rate                                 : 384 Kbps

Channel count                            : 6 channels

Channel positions                        : Front: L C R, Side: L R, LFE

Sampling rate                            : 44.1 KHz

Bit depth                                : 16 bits

Compression mode                         : Lossy

Delay relative to video                  : 9ms

Stream size                              : 294 MiB (15%)

Title                                    : Español Latino

Language                                 : Spanish

Default                                  : Yes

Forced                                   : No


Audio #2

ID                                       : 3

Format                                   : AAC

Format/Info                              : Advanced Audio Codec

Format profile                           : LC

Codec ID                                 : A_AAC

Duration                                 : 1h 47mn

Channel count                            : 2 channels

Channel positions                        : Front: L R

Sampling rate                            : 48.0 KHz

Compression mode                         : Lossy

Title                                    : Inglés

Language                                 : English

Default                                  : No

Forced                                   : No






CAPTURAS


Quiero aclarar que todas las capturas son propias, sacadas directamente de las películas, para que haya mejor claridad sobre el material a descargar


(La marca de agua solo está en las capturas, el vídeo está totalmente limpio)






































LINK DE DESCARGA



Bueno, como lo comentaba es un link por película, lo dejaré solo para descarga con el JDownloader, esperando que esta vez duren los link.




LOS ANGELES DE CHARLY









LINK DE DESCARGA









LOS ANGELES DE CHARLY AL LIMITE









LINK DE DESCARGA




[/font]
[/b]









Para mi, mas que los puntos, lo 


importante son sus comentarios 


para poder mejorar, con un 


gracias es suficiente..













Los Angeles de Charly 1 y 2 - Brrip - Dual
55 Puntos Score: 9.2/10
Visitas: 2534 Favoritos: 8
Ver los usuarios que votaron...
24 Comentarios Los Angeles de Charly 1 y 2 - Brrip - Dual
no tengo JD ni Mipony. podrias pasarme los links por MP
SUBELOS EN MEGA AMIGO --- GRACIAS
gracias amigo- muy buenas
no me descarga amigo en el JD despues del conteo me dice se requiere cuenta para descargar y tengo cuenta en 4shaed  seria my4shared pero nada hay alguna otra forma d hacerlo?? si me ayudan gracias y buen post por cierto .
muchas gracias me las llevo   +10
@RobertHD07 @chititogdl @segoviano Que las disfruten!!!

@jorgitos Pues amigo, no deber?
Cita jorgitos: Mostrar
= me sale el mismo mensaje. alguna solucion? gracias.
Amigo gracias por compartir pero al igual que a los demas a mi me sale error de descarga en
mypony
gracias................  por nada .................los link piden cuenta en 4shared ..............donde estan los moderadores que eliminen este post
Cita fre2004: Mostrar
Solo crea una cuenta en 4shared y listo ,aca en identi hay un post que lo explica...
@misifuz @baag78 @jorgitos Hola amigos, voy a volverlas a subir, no se que pasa, tengo otras peliculas que ya est?
hola amigo, me podr?
@Tekken007 Muchas gracias por compartir hazlo por voluntad propia no quisiera causarte el doble de trabajo, igual reconozco la tarea que te estas tomando, si lo compartes por mega se agradece mas. saludo amigo.. de diez!!
Exelente Aporte Viejitas pero de las Buenas.... una duda tienen pass?
@Alexandrus Hola amigo... estas no tienen pass...

@RAMONZARA @Wolfmaster3008  Que las disfruten!!!


Gracias por pasar!!!  
Muy buenos tus aportes !    
eliminaron los arcchibos
los links del segundo estan caidos  
La segunda parte ya no est?
Para dejar un comentario Registrate! o.. eres ya usuario? Accede!