Joe el Sucio Joe Dirt 2001 audio latino David

Las Aventuras de Joe el Sucio en Español Latino
Joe Dirt es una película de comedia del 2001 protagonizada por David Spade,
Joe Dirt es un inocente conserje de extraño peinado y jeans deslavados que aún tiene la esperanza de encontrar a sus padres, a quienes perdió cuando tenía ocho años en una visita al Gran Cañón. Durante su búsqueda, un locutor de radio lo invita a su programa para burlarse de él, sin sospechar que sus ordinarias aventuras serán la delicia de la audiencia



CAPUTURAS



Video
ID                          : 0
Format                      : MPEG-4 Visual
Format profile              : Advanced [email protected]
Format settings, BVOP       : 1
Format settings, QPel       : No
Format settings, GMC        : No warppoints
Format settings, Matrix     : Custom
Codec ID                    : XVID
Codec ID/Hint               : XviD
Duration                    : 1h 27mn
Bit rate                    : 1 787 Kbps
Width                       : 720 pixels
Height                      : 416 pixels
Display aspect ratio        : 1.731
Frame rate                  : 25.000 fps
Color space                 : YUV
Chroma subsampling          : 4:2:0
Bit depth                   : 8 bits
Scan type                   : Progressive
Compression mode            : Lossy
Bits/(Pixel*Frame)          : 0.239
Stream size                 : 1.09 GiB (91%)
Writing library             : XviD 64

Audio
ID                          : 1
Format                      : AC-3
Format/Info                 : Audio Coding 3
Mode extension              : CM (complete main)
Format settings, Endianness : Big
Codec ID                    : 2000
Duration                    : 1h 27mn
Bit rate mode               : Constant
Bit rate                    : 160 Kbps
Channel(s)                  : 2 channels
Channel positions           : Front: L R
Sampling rate               : 44.1 KHz
Bit depth                   : 16 bits
Compression mode            : Lossy
Stream size                 : 100 MiB (8%)
Alignment                   : Split accross interleaves
Interleave, duration        : 40 ms (1.00 video frame)
Interleave, preload duratio : 500 ms


Servidor mega
Joe el Sucio Joe Dirt 2001 audio latino David
20 Puntos Score: 6.7/10
Visitas: 2219 Favoritos: 4
Ver los usuarios que votaron...
10 Comentarios Joe el Sucio Joe Dirt 2001 audio latino David
Muchas gracias por compartir
Saludos
muchas gracias muy buena la peli  
muchas gracias,  
ESPECTACULAR. GRACIAS
muy buena descargada y descomprimida sin problemas te daria puntos pero de nuevo ya no puedo =(
links caidos  
@juanw200 podrias resubier los links por favor
Amigo la tienes en calidad 720p?????' graciasssssss
Para dejar un comentario Registrate! o.. eres ya usuario? Accede!