AC DC - Rock or Bust (2014)(Flac)(Mg)






Información


Formato: Flac (Image + .cue) + Log

Año: 2014

Covers: En el rar



Lista de canciones:


01 Rock Or Bust

02 Play Ball

03 Rock The Blues Away

04 Miss Adventure

05 Dogs Of War

06 Got Some Rock & Roll Thunder

07 Hard Times

08 Baptism By Fire

09 Rock The House

10 Sweet Candy

11 Emission Control




Log:

Exact Audio Copy V1.0 beta 3 from 29. August 2011

EAC extraction logfile from 22. December 2014, 10:07

AC-DC / Rock Or Bust (SICP 4350)

Used drive  : PLEXTOR DVDR   PX-760A   Adapter: 1  ID: 0

Read mode               : Secure
Utilize accurate stream : Yes
Defeat audio cache      : Yes
Make use of C2 pointers : No

Read offset correction                      : 30
Overread into Lead-In and Lead-Out          : No
Fill up missing offset samples with silence : Yes
Delete leading and trailing silent blocks   : No
Null samples used in CRC calculations       : Yes
Used interface                              : Native Win32 interface for Win NT & 2000

Used output format              : User Defined Encoder
Selected bitrate                : 1024 kBit/s
Quality                         : High
Add ID3 tag                     : No
Command line compressor         : C:Program Files (x86)Exact Audio CopyFlacflac.exe
Additional command line options : -V -8 -T "Date=%year%" -T "Genre=%genre%" %source%


TOC of the extracted CD

     Track |   Start  |  Length  | Start sector | End sector 
    ---------------------------------------------------------
        1  |  0:00.00 |  3:03.01 |         0    |    13725   
        2  |  3:03.01 |  2:47.06 |     13726    |    26256   
        3  |  5:50.07 |  3:24.27 |     26257    |    41583   
        4  |  9:14.34 |  2:57.22 |     41584    |    54880   
        5  | 12:11.56 |  3:35.31 |     54881    |    71036   
        6  | 15:47.12 |  3:22.45 |     71037    |    86231   
        7  | 19:09.57 |  2:44.15 |     86232    |    98546   
        8  | 21:53.72 |  3:30.15 |     98547    |   114311   
        9  | 25:24.12 |  2:42.64 |    114312    |   126525   
       10  | 28:07.01 |  3:09.54 |    126526    |   140754   
       11  | 31:16.55 |  3:41.34 |    140755    |   157363   


Range status and errors

Selected range

     Filename F:bki71AC-DC - Rock Or Bust (SICP 4350).wav

     Peak level 99.3 %
     Extraction speed 2.5 X
     Range quality 100.0 %
     Test CRC 801720C8
     Copy CRC 801720C8
     Copy OK

No errors occurred






Discografía Completa
http://www.identi.li/index.php?topic=304516






AC DC - Rock or Bust (2014)(Flac)(Mg)
25 Puntos Score: 8.3/10
Visitas: 739 Favoritos: 0
Ver los usuarios que votaron...
4 Comentarios AC DC - Rock or Bust (2014)(Flac)(Mg)
Excelente, y yo pensaba que no volverias a crear otro post.
Para dejar un comentario Registrate! o.. eres ya usuario? Accede!