Oops.. Este post tiene los enlaces eliminados!

Identi revisa las denuncias de los usuarios en busca de enlaces eliminados que no dejan descargar los archivos, este mensaje te informa que este post que estas viendo tiene los enlaces eliminados.

Usa el Buscador

Por favor, te recomendamos que uses el buscador para encontrar más alternativas.

El Orfanato (2007) Espa?ol Original .rmvb

  • Categoría: Reciclaje
  • Publicado hace más de 5 años
El Orfanato (2007) Español Original rmvb


Dirigida por: Juan Antonio Bayona.
Producida por:

Belén Atienza?.productor en línea
Álvaro Augustín?.productor
Sandra Hermida?.productor en línea
Elena Manrique?.productor en línea
Joaquín Padró?.productor
Mar Targarona?.productor
Guillermo del Toro?.productor.


Laura, una antigua huérfana, regresa con su hijo adoptivo Simón y junto con su esposo Carlos, al antiguo orfanato donde se crió. Mientras que Simón dice a Laura que tiene cinco amigos invisibles que ella cree que son producto de su imaginación activa. Laura decide volver a abrir el orfanato para atender a niños discapacitados y realiza una fiesta. Durante la fiesta Simón intenta convencer a Laura para ir a echar un vistazo al camarote de sus amigos, pero ella está demasiado ocupada. Más tarde se ve a un chico misterioso enmascarado y se da cuenta de que Simón también ha desaparecido. Laura siente la presencia de otras personas en la casa y meses más tarde Laura invita a un equipo de parapsicólogos para tratar de desentrañar el misterio.






Reparto:
Belén Rueda ? Laura, Fernando Cayo ? Carlos, Roger Príncep ? Simón, Mabel Rivera ? Pilar, Montserrat Carulla ? Benigna, Andrés Gertrúdix ? Enrique, Edgar Vivar ? Prof., Leo Bálaban, Óscar Casas ? Tomás, Mireia Renau ? Laura niña, Georgina Avellaneda ? Rita, Carla Gordillo ? Martín, Alejandro Camps ? Víctor, Carmen López ? Alicia, Óscar Lara ? Guillermo, Geraldine Chaplin ? Aurora, Enric Arquimbau ? Jefe Grupo, Terapia, Blanca Martínez ? Mujer Grupo Terapia, Carol Suárez ? Benigna joven, Isabel Friera ? Antonia cuidadora, Fernando Marrot ? Doctor, Jordi Cardus ? Niño, ciego (como Jordi Cardús), Pedro Morales ? Padre 2.





General

Format: RealMedia
File size: 355 MiB
Duration: 1h 37mn
Overall bit rate: 499 Kbps

Video

ID: 1
Format: RealVideo 4
Codec ID: RV40
Codec ID/Info: Based on AVC (H.264), Real Player 9
Duration: 1h 37mn
Bit rate: 435 Kbps
Width: 640 pixels
Height: 272 pixels
Display aspect ratio: 2.35:1
Frame rate: 25.000 fps
Bits/(Pixel*Frame): 0.100
Stream size: 304 MiB (86%)

Audio

ID: 0
Format: Cooker
Codec ID: cook
Codec ID/Info: Based on G.722.1, Real Player 6
Duration: 1h 37mn
Bit rate: 64.1 Kbps
Channel(s): 2 channels
Sampling rate: 44.1 KHz
Bit depth: 16 bits
Stream size: 44.8 MiB (13%)



El Orfanato (2007) Espa?ol Original .rmvb
13 Puntos Score: 4.3/10
Visitas: 1720 Favoritos: 2
Ver los usuarios que votaron...
5 Comentarios El Orfanato (2007) Espa?ol Original .rmvb
q idioma es castellano o latino
Excelente aporte, el ?
@acoos   Muchas Gracias a vos pasar y Comentar!!! Ah?
Este post esta cerrado y no se permiten comentarios.
Para dejar un comentario Registrate! o.. eres ya usuario? Accede!