Criando malvas(Pushing Daisies) T1 Dvdrip latino

Criando malvas(Pushing Daisies) Temporada 1 Dvdrip audio español  latino

Saludos, hoy les vengo a compartir la temporada 1 de criando malvas pushing daisies en latino,notas del proyecto, los dvdrip son de los dvds originales ripeados por mi, el audio latino es de un vhs donde hace años los tenia grabados de canal 5 de mexico, algunos capitulos traen pequeñas partes en ingles incluyo un archivo srt con las partes faltantes,la sincronizacion de los audios fue hecha solo por mi, me costo un huevo pero quedo lo mejor que se puede, solo tengo la temporada 1 en latino,la calidad del audio de los primero 4 capitulos es un poco mejor se uso un vhs sony pero murio antes de completar los demas capitulos, los capitulos de 5 al 9 se uso una vhs lg y la calidad es un poco inferior pero se entiende bien, por el momento es todo lo que se puede hacer con esta serie hasta que salga otra vez en tv o en netflix o hasta que  warner bros nos tome en cuenta a mexico e incluya  los doblajes que son muy buenos,  despues de tanta palabreria vamos a lo que importa

Pushing Daisies (Criando malvas en España) es una comedia dramática estadounidense creada por Bryan Fuller ?creador de Tan muertos como yo (Dead Like Me)
Pushing Daisies relata la vida de Ned, un joven que posee la misteriosa habilidad de devolver la vida a los muertos solo con tocarlos. Sin embargo, hay algunas condiciones: si toca a la persona resucitada una segunda vez, esta morirá para siempre; y si una persona revive durante más de un minuto, alguien cercano morirá.


Capturas
Todos los capitulos tienen el mismo peso 461 MB cada uno, en total son 9 capitulos
Video
ID                             : 0
Format                         : MPEG-4 Visual
Format profile                 : Advanced [email protected]
Format settings, BVOP          : 1
Format settings, QPel          : No
Format settings, GMC           : No warppoints
Format settings, Matrix        : Custom
Codec ID                       : XVID
Codec ID/Hint                  : XviD
Duration                       : 41mn 40s
Bit rate                       : 1 345 Kbps
Width                          : 720 pixels
Height                         : 416 pixels
Display aspect ratio           : 1.731
Frame rate                     : 23.976 fps
Color space                    : YUV
Chroma subsampling             : 4:2:0
Bit depth                      : 8 bits
Scan type                      : Progressive
Compression mode               : Lossy
Bits/(Pixel*Frame)             : 0.187
Stream size                    : 401 MiB (87%)
Writing library                : XviD 1.2.1 (UTC 2008-12-04)

Audio
ID                             : 1
Format                         : AC-3
Format/Info                    : Audio Coding 3
Mode extension                 : CM (complete main)
Format settings, Endianness    : Big
Codec ID                       : 2000
Duration                       : 41mn 40s
Bit rate mode                  : Constant
Bit rate                       : 192 Kbps
Channel(s)                     : 2 channels
Channel positions              : Front: L R
Sampling rate                  : 48.0 KHz
Bit depth                      : 16 bits
Compression mode               : Lossy
Stream size                    : 57.2 MiB (12%)
Alignment                      : Split accross interleaves
Interleave, duration           : 42 ms (1.00 video frame)
Interleave, preload duration   : 500 ms
Language                       : Espanol
Fuentes 
Video Dvdfull 

Audio vhs Es lo que hay xq


Actualizado links mega necesitan jd o mi pony estan encriptados con mi pony




Bueno eso es todo, si te gusto esta serie aqui te dejo otra del mismo creador, se llama Tan muertos como yo (Dead Like Me) Tambien esta muy buena se las recomiendo, no se si aun sirven los links pero pueden probar http://www.identi.li/index.php?topic=360676
Criando malvas(Pushing Daisies) T1 Dvdrip latino
40 Puntos Score: 10/10
Visitas: 1399 Favoritos: 3
Ver los usuarios que votaron...
8 Comentarios Criando malvas(Pushing Daisies) T1 Dvdrip latino
Amigo he buscado esta serie en latino y uff gracias a ti la encontre, ojala puedas subir la 2a temporada
te pasaste te dejo +10 y wnnn de verdad te pasaste C: al fin alguien la subi?
qe buen aporte, lastima que solo se hayan hecho dos temporadas
super excelente aporte, amigo, yo cabo de encontrar los capitulos en brrip 852x400 y me costo 2 semanas descargarlos ya qeu estaban en rapigator y los resubi a mega, lo malo es que mi compu murio y no me acuerdo de la cuenta jajaja........nunca los habia encontrado en latino solo cuando los veia en la tele de canal 5 en la madrugada fue la unica vez que los vi en latino, gracias por tu esfuerzo  
@Gian22 @denovel @mahisoka @yupitoi @JAFC1902 de nada, lastima que no alcance a grabar todos los capitulos completos y en mejor calidad, en ese tiempo no tenia pc ni nada para capturar los audios, solo tenia un videocasetera vhs, pero algo es algo  
Cita juanw200: Mostrar

el aporte se te agradece, es en la ?
mil gracias excelente  
Para dejar un comentario Registrate! o.. eres ya usuario? Accede!