Oops.. Este post tiene los enlaces eliminados!

Identi revisa las denuncias de los usuarios en busca de enlaces eliminados que no dejan descargar los archivos, este mensaje te informa que este post que estas viendo tiene los enlaces eliminados.

Usa el Buscador

Por favor, te recomendamos que uses el buscador para encontrar más alternativas.

Unknown (2011) DVDRiP XViD AC3 ? IMAGiNE

  • Categoría: Reciclaje
  • Publicado hace más de 5 años
Unknown (2011) DVDRiP XViD AC3 ? IMAGiNE




El doctor Martin Harris (Liam Neeson) despierta del coma después de sufrir un accidente de coche en Berlín. Entonces descubre que su mujer, Elizabeth (January Jones), no le reconoce; y lo que es peor, que otro hombre (Aidan Quinn), ha asumido su identidad. Ignorado por las autoridades y perseguido por misteriosos asesinos, el doctor Harris se adentra en una espiral de angustia y soledad. Su única ayuda en un mundo que le ha abandonado es una extraña mujer llamada Gina (Diane Kruger). Junto a ella intentará recuperar lo que es suyo: su identidad, aquello que le pertenece por el mero hecho de existir, aunque algunos quieran borrar su huella para siempre.

*+*   +*+*+* *+*+*+   *+* *+*   *+*    *+*    *+*   *+*+*   *+* *+*      
      +*+   +*+ +*+*+ +*+  +*+   +*+  +*+       +*+   *+*+*+  +*+ +*+      
      +$+   +$+  +*+  +$+ +$++*++$++* *$*       +$+   +$+ +*+ +$+ +$++*++$ 
      +$+   +$+     +$+ +$+   +$+ +$+   +$+$    +$+   +$+  +$+$+$ +$+      
      $+$   $+$     $+$ $+$   $+$ $+$    $+$    $+$   $+$   $+$+$ $+$      
    $$$$$$$$$$$ $$$     $$$ $$$   $$$  $$$$$$$$ $$$$$$$$$$$ $$$    $$$$ $$$$$$$$$$   
                            



                Another Fine Release Brought to you from - IMAGiNE            
                              

********************************************************************************************************************                   
                     Unknown 2011 DVDRiP XViD AC3 - IMAGiNE
********************************************************************************************************************

Ripper ...........: IMAGiNE                        IMDB Rating.......: 6.8/10                  
Video Codec.......: XVID                         Release Date......: 24/05/11
Audio Codec.......: AC3                          Theatre Date......: 18/02/11
Audio Bitrate.....: 256                          Runtime.......: 1h 53mn
Subtitles.........: NIL                          Language..........: ENGLISH
Resolution......: 720 x 304                        IMDb URL..........: http://www.imdb.com/title/tt1401152/


DETAILS:

Video
ID                   : 0
Format                 : MPEG-4 Visual
Format profile             : Advanced [email protected]
Format settings, BVOP        : 2
Format settings, QPel        : No
Format settings, GMC         : No warppoints
Format settings, Matrix      : Default (MPEG)
Muxing mode              : Packed bitstream
Codec ID               : XVID
Codec ID/Hint            : XviD
Duration               : 1h 53mn
Bit rate               : 1 466 Kbps
Width                  : 720 pixels
Height                 : 304 pixels
Display aspect ratio         : 2.35:1
Frame rate               : 29.970 fps
Color space              : YUV
Chroma subsampling         : 4:2:0
Bit depth                : 8 bits
Scan type                : Progressive
Compression mode           : Lossy
Bits/(Pixel*Frame)         : 0.223
Stream size              : 1.16 GiB (85%)
Writing library            : XviD 61

Audio
ID                   : 1
Format                 : AC-3
Format/Info              : Audio Coding 3
Mode extension             : CM (complete main)
Codec ID               : 2000
Duration               : 1h 53mn
Bit rate mode            : Constant
Bit rate               : 256 Kbps
Channel(s)               : 2 channels
Channel positions          : Front: L R
Sampling rate            : 48.0 KHz
Bit depth                : 16 bits
Compression mode           : Lossy
Stream size              : 207 MiB (15%)
Alignment                : Aligned on interleaves
Interleave, duration         : 33 ms (1.00 video frame)
Interleave, preload duration   : 512 ms








Unknown (2011) DVDRiP XViD AC3 ? IMAGiNE
20 Puntos Score: 6.7/10
Visitas: 1628 Favoritos: 0
Ver los usuarios que votaron...
0 Comentarios Unknown (2011) DVDRiP XViD AC3 ? IMAGiNE
Este post no tiene comentarios. Sea el primero!
Para dejar un comentario Registrate! o.. eres ya usuario? Accede!