Red Riding Hood (2011) R5 LiNE XViD ? IMAGiNE

Red Riding Hood (2011) R5 LiNE XViD ? IMAGiNE




En ?Caperucita Roja?, Seyfried interpreta a Valerie, una bella joven en una encrucijada por dos hombres. Está enamorada de un chico más bien retraído, Peter (Shiloh Fernández), pero sus padres han organizado su matrimonio con el adinerado Henry (Max Irons). Ante la perspectiva de separarse, Valerie y Peter están planeando fugarse juntos cuando se enteran de que la hermana mayor de Valerie ha sido asesinada por el hombre-lobo que vive en el oscuro bosque que rodea su población.

Durante años, la gente ha mantenido un complicado pacto con la bestia ofreciéndole un sacrificio animal cada mes. Pero a la luz de una luna color rojo sangre, el lobo ha decidido subir ese precio matando a un humano. Deseosos de venganza, los habitantes llaman a un famoso cazador de hombres-lobo, el Padre Solomon (Gary Oldman), para que les ayude a matar al animal. Pero la llegada de Solomon tiene consecuencias imprevistas ya que pone en alerta al animal, que adopta una forma humana durante el día, por lo que podría ser cualquiera de ellos.

Cuando las sangrientas exigencias por el animal aumentan con cada luna, Valerie comienza a sospechar que el hombre-lobo podría ser alguien a quien ella ama. A medida que el pánico se extiende por la ciudad, Valerie descubre que mantiene un vínculo único con la bestia, un vínculo que inexorablemente les arrastra a estar juntos, convirtiéndola tanto en sospechosa como en cebo al mismo tiempo.

Red Riding Hood 2011 R5 LiNE XViD - IMAGiNE
Description    *********** ****    ****    ***    ******** *********** ****    *** **********
      *+*   +*+*+* *+*+*+   *+* *+*   *+*    *+*    *+*   *+*+*   *+* *+*      
      +*+   +*+ +*+*+ +*+  +*+   +*+  +*+       +*+   *+*+*+  +*+ +*+      
      +$+   +$+  +*+  +$+ +$++*++$++* *$*       +$+   +$+ +*+ +$+ +$++*++$ 
      +$+   +$+     +$+ +$+   +$+ +$+   +$+$    +$+   +$+  +$+$+$ +$+      
      $+$   $+$     $+$ $+$   $+$ $+$    $+$    $+$   $+$   $+$+$ $+$      
    $$$$$$$$$$$ $$$     $$$ $$$   $$$  $$$$$$$$ $$$$$$$$$$$ $$$    $$$$ $$$$$$$$$$   
                            



                Another Fine Release Brought to you from - IMAGiNE 






       Another Fine Release Brought to you from - IMAGiNE            

                           



********************************************************************************************************************                   

                  Red Riding Hood 2011 R5 LiNE XViD - IMAGiNE

********************************************************************************************************************



Ripper ...........: IMAGiNE                        IMDB Rating.......: 4.9/10                  

Video Codec.......: XVID                         Release Date......: 25/05/11

Audio Codec.......: MP3                          Theatre Date......: 11/03/11

Audio Bitrate.....: 128                          Runtime.......: 1h 39mn

Subtitles.........: NIL                          Language..........: ENGLISH

Resolution......: 720 x 304                        IMDb URL..........: http://www.imdb.com/title/tt1486185/



DETAILS:

Video

ID                   : 0

Format                 : MPEG-4 Visual

Format profile             : Advanced [email protected]

Format settings, BVOP        : 2

Format settings, QPel        : No

Format settings, GMC         : No warppoints

Format settings, Matrix      : Default (MPEG)

Muxing mode              : Packed bitstream

Codec ID               : XVID

Codec ID/Hint            : XviD

Duration               : 1h 39mn

Bit rate               : 1 827 Kbps

Width                  : 720 pixels

Height                 : 304 pixels

Display aspect ratio         : 2.35:1

Frame rate               : 29.970 fps

Color space              : YUV

Chroma subsampling         : 4:2:0

Bit depth                : 8 bits

Scan type                : Progressive

Compression mode           : Lossy

Bits/(Pixel*Frame)         : 0.279

Stream size              : 1.27 GiB (93%)

Writing library            : XviD 61



Audio

ID                   : 1

Format                 : MPEG Audio

Format version             : Version 1

Format profile             : Layer 3

Mode                   : Joint stereo

Mode extension             : MS Stereo

Codec ID               : 55

Codec ID/Hint            : MP3

Duration               : 1h 39mn

Bit rate mode            : Constant

Bit rate               : 128 Kbps

Channel(s)               : 2 channels

Sampling rate            : 44.1 KHz

Compression mode           : Lossy

Stream size              : 91.4 MiB (7%)

Alignment                : Split accross interleaves

Interleave, duration         : 33 ms (1.00 video frame)

Writing library            : LAME3.98r



SOURCES:

VIDEO: ............. KiNOPARK

AUDIO: ............. KiNOPARK  Thanx Mate


NOTES:



IMAGiNE bringing you another release..........

Red Riding Hood.....

Alright here we have yet another ntsc 'R5'

so although it isnt PAL we still opted for the R5

tag as it had no english track

Anyhow source was pretty good so not much was needed here.....

Made a script to crop rotate and so on.....

Audio is nice LiNE we synced filtered and muxed to our encode

Reguardless of what you call it, its a damn fine release here.



Red Riding Hood (2011) R5 LiNE XViD ? IMAGiNE
0 Puntos Score: 0/10
Visitas: 1135 Favoritos: 0
0 Comentarios Red Riding Hood (2011) R5 LiNE XViD ? IMAGiNE
Este post no tiene comentarios. Sea el primero!
Para dejar un comentario Registrate! o.. eres ya usuario? Accede!