U Turn (1997) - Dual - Brrip - 1 Link Mega





Hola amigos de Identi... Estoy de regreso después de perder 1 Tera en películas y adicional que todos los link de mis post se cayeran.  Estoy consiguiendo nuevamente las películas que ya había publicado pero con mejor calidad... por favor esperen...



En esta ocasión traigo otro gran clásico de Oliver Stone, una gran comedia negra, una película que particularmente me encanta, como decimos en Colombia "es severo video todo lo que le pasa a este man" ...



Espero que la disfruten.... 






1997 - U Turn


camino sin retorno











SINOPSIS




U Turn es una película estadounidense de 1997, dirigida por Oliver Stone. Protagonizada por Sean Penn, Jennifer Lopez, Nick Nolte, Joaquín Phoenix, Billy Bob Thornton, Jon Voight entre otros
Un fallo de motor de su Ford Mustang rojo obliga a Bobby (Sean Penn) a una parada forzada en un pueblo pequeño en medio del desierto de Arizona. Bobby es un jugador que debe alcanzar Las Vegas para pagar una deuda de 12.000 dólares a la mafia, y al que, como una advertencia, ya le han amputado dos dedos de la mano izquierda. No sabe que sus problemas acaban de comenzar.
En la ciudad conoce a Grace (Jennifer Lopez) que le hace perder la cabeza y le lleva a su casa, donde es sorprendido por su marido Jake (Nick Nolte). Grace intenta convencer a Bobby para matar a su marido, pero éste le hace la misma propuesta.

                                                                                                                                             (Tomado de Wikipedia)







MEDIA INFO


Esa es la ficha técnica sacada de la película, se informa formato, peso, calidad, duración, Bit rate y demás datos que son necesarios para conocer la calidad real de la misma, para aquellos siempre solicitan datos puntuales:



General

Format                                   : Matroska
Format version                           : Version 4 / Version 2
File size                                : 3.53 GiB
Duration                                 : 1h 59mn
Overall bit rate                         : 4 234 Kbps
Encoded date                             : UTC 2015-03-18 02:03:57
Writing application                      : mkvmerge v6.3.0 ('You can't stop me!') built on Jun 28 2013 20:09:41
Writing library                          : libebml v1.3.0 + libmatroska v1.4.0
DURATION                                 : 01:53:08.295000000
NUMBER_OF_FRAMES                         : 1457
NUMBER_OF_BYTES                          : 43447
_STATISTICS_WRITING_APP                  : mkvmerge v7.0.0 ('Where We Going') 64bit built on Jun  9 2014 15:16:27
_STATISTICS_WRITING_DATE_UTC             : 2014-06-14 08:16:38
_STATISTICS_TAGS                         : BPS DURATION NUMBER_OF_FRAMES NUMBER_OF_BYTES

Video
ID                                       : 1
Format                                   : AVC
Format/Info                              : Advanced Video Codec
Format profile                           : [email protected]
Format settings, CABAC                   : Yes
Format settings, ReFrames                : 4 frames
Codec ID                                 : V_MPEG4/ISO/AVC
Duration                                 : 1h 59mn
Nominal bit rate                         : 3 148 Kbps
Width                                    : 1 920 pixels
Height                                   : 1 040 pixels
Display aspect ratio                     : 1.85:1
Frame rate mode                          : Constant
Frame rate                               : 25.000 fps
Color space                              : YUV
Chroma subsampling                       : 4:2:0
Bit depth                                : 8 bits
Scan type                                : Progressive
Bits/(Pixel*Frame)                       : 0.063
Writing library                          : x264 core 130 r2273 b3065e6
Default                                  : Yes
Forced                                   : No

Audio #1
ID                                       : 2
Format                                   : AC-3
Format/Info                              : Audio Coding 3
Mode extension                           : CM (complete main)
Format settings, Endianness              : Big
Codec ID                                 : A_AC3
Duration                                 : 1h 59mn
Bit rate mode                            : Constant
Bit rate                                 : 320 Kbps
Channel count                            : 2 channels
Channel positions                        : Front: L R
Sampling rate                            : 48.0 KHz
Bit depth                                : 16 bits
Compression mode                         : Lossy
Delay relative to video                  : 24ms
Stream size                              : 273 MiB (8%)
Title                                    : Español Latino
Language                                 : Spanish
Default                                  : Yes
Forced                                   : No

Audio #2
ID                                       : 3
Format                                   : AAC
Format/Info                              : Advanced Audio Codec
Format profile                           : HE-AAC / LC
Codec ID                                 : A_AAC
Duration                                 : 1h 59mn
Channel count                            : 6 channels
Channel positions                        : Front: L C R, Side: L R, LFE
Sampling rate                            : 48.0 KHz / 24.0 KHz
Compression mode                         : Lossy
Title                                    : Inglés
Language                                 : English
Default                                  : No
Forced                                   : No

Audio #3
ID                                       : 4
Format                                   : AC-3
Format/Info                              : Audio Coding 3
Mode extension                           : CM (complete main)
Format settings, Endianness              : Big
Codec ID                                 : A_AC3
Duration                                 : 1h 59mn
Bit rate mode                            : Constant
Bit rate                                 : 384 Kbps
Channel count                            : 6 channels
Channel positions                        : Front: L C R, Side: L R, LFE
Sampling rate                            : 48.0 KHz
Bit depth                                : 16 bits
Compression mode                         : Lossy
Stream size                              : 328 MiB (9%)
Title                                    : Ruso
Language                                 : Russian
Default                                  : No
Forced                                   : No

Text #1
ID                                       : 5
Format                                   : UTF-8
Codec ID                                 : S_TEXT/UTF8
Codec ID/Info                            : UTF-8 Plain Text
Title                                    : Inglés
Language                                 : English
Default                                  : No
Forced                                   : No

Text #2
ID                                       : 6
Format                                   : UTF-8
Codec ID                                 : S_TEXT/UTF8
Codec ID/Info                            : UTF-8 Plain Text
Title                                    : Español
Language                                 : Spanish
Default                                  : No
Forced                                   : No





CAPTURAS


Quiero aclarar que todas las capturas son propias, sacadas directamente de las películas, para que haya mejor claridad sobre el material a descargar


(La marca de agua solo está en las capturas, el vídeo está totalmente limpio)




























LINK DE DESCARGA



Bueno, como lo comentaba es un link por película, lo dejaré solo para descarga con el JDownloader, esperando que esta vez duren los link.




1997 - u turn o camino sin retorno













Para mi, mas que los puntos, lo 


importante son sus comentarios 


para poder mejorar, con un 


gracias es suficiente..













U Turn (1997) - Dual - Brrip - 1 Link Mega
30 Puntos Score: 7.5/10
Visitas: 2263 Favoritos: 4
Ver los usuarios que votaron...
15 Comentarios U Turn (1997) - Dual - Brrip - 1 Link Mega
Esta muy buena la peli, como se jode Sean a Jennifer Lopez
por jenifer lopez nomas la voya bajar  
gracias por compartir pero el actor ese no es bono de u2 ja ja ja saludos
Gracias Compadre, que zapallo de la Jennifer Lopez !!!
gracias!! amigo excelente pel?
podrias resubirla? Link Caidos
@Diebo10 Voy a hacer lo posible amigo... Mega me est?
podrias resubirla???? pero en mega los elimina al toque amigo...te aconsejo si me permitis subelo por 4shared te duran mucho tiempo y es mas dificil q te los eliminen  
amigo Tekken007,por favor resubelos a otro servidor ese servidor 4shared no baja por el JD.gracias anticipadamente.
no carga el JD los links de 4shared
Vale gracias  
la podrias volver a subirr ??  por favor
Excelente aporte, gracias de antemano!. Descargando a través de MegaDownloader....
Para dejar un comentario Registrate! o.. eres ya usuario? Accede!