Tuvalu (1999) - DvdRip 1 link





Hola amigos de Identi... Estoy de regreso después de perder 1 Tera en películas y adicional que todos los link de mis post se cayeran.  Estoy consiguiendo nuevamente las películas que ya había publicado pero con mejor calidad... por favor esperen...



En esta ocasión traigo un clásico poco conocido, adicional una película que es un homenaje al cine mudo...




Espero que la disfruten.... 






1999 - tuvalu









SINOPSIS

[/size]



Tuvalu (1999), además de ser el nombre de una isla polinesia, es el título de la primera película del director alemán Veit Helmer, la cual fue candidata en los Premios de Cine Europeo 2000 dentro de la categoría de mejor descubrimiento del año.
Esta cinta ofrece un homenaje al cine mudo. Lo que podemos escuchar es sonido ambiental, algunos gruñidos y la música a cargo de el magnífico músico bosnio Goran Bregovic y Jürgen Knieper.
 
La historia es sencilla: Anton, un joven monitor de natación, mantiene la ilusión de su padre ciego de que la piscina -el negocio familiar- no está en ruinas y de hecho es muy concurrida. Anton es un chico excéntrico, solitario, que sueña con navegar por los mares rumbo a Tuvalú. Ese sueño lo comparte con Eva, la chica que se interesa por el carácter especial de Anton.
 
El hermano de Anton, Gregor, quiere destruir la piscina -y la ciudad- para reemplazarla por una ciudad futurista. Anton deberá rescatar la piscina y ganar el amor de Eva.
 
La dramatización por medio de la gestualidad es magnífica, el actor Denis Lavant (Los amantes de Pont-Neuf, Boys meets girls y Mala sangre) da vida al héroe tímido Anton; y Chulpan Khamatova (Goodbye Lenin) encarna a Eva, la dulce chica.
                                                                                                                                             (Tomado de Wikipedia)







MEDIA INFO


Esa es la ficha técnica sacada de la película, se informa formato, peso, calidad, duración, Bit rate y demás datos que son necesarios para conocer la calidad real de la misma, para aquellos siempre solicitan datos puntuales:



General
Format                                   : AVI
Format/Info                              : Audio Video Interleave
File size                                : 900 MiB
Duration                                 : 1h 27mn
Overall bit rate                         : 1 440 Kbps

Video
ID                                       : 0
Format                                   : MPEG-4 Visual
Format profile                           : [email protected]
Format settings, BVOP                    : No
Format settings, QPel                    : No
Format settings, GMC                     : No warppoints
Format settings, Matrix                  : Default (H.263)
Codec ID                                 : XVID
Codec ID/Hint                            : XviD
Duration                                 : 1h 27mn
Bit rate                                 : 1 300 Kbps
Width                                    : 704 pixels
Height                                   : 368 pixels
Display aspect ratio                     : 1.913
Frame rate                               : 25.000 fps
Color space                              : YUV
Chroma subsampling                       : 4:2:0
Bit depth                                : 8 bits
Scan type                                : Progressive
Compression mode                         : Lossy
Bits/(Pixel*Frame)                       : 0.201
Stream size                              : 812 MiB (90%)
Writing library                          : XviD 1.1.0 Beta2 (UTC 2005-04-04)

Audio
ID                                       : 1
Format                                   : MPEG Audio
Format version                           : Version 1
Format profile                           : Layer 3
Mode                                     : Joint stereo
Mode extension                           : MS Stereo
Codec ID                                 : 55
Codec ID/Hint                            : MP3
Duration                                 : 1h 27mn
Source duration                          : 1h 27mn
Bit rate mode                            : Constant
Bit rate                                 : 128 Kbps
Channel count                            : 2 channels
Sampling rate                            : 44.1 KHz
Compression mode                         : Lossy
Delay relative to video                  : 26ms
Stream size                              : 80.0 MiB (9%)
Alignment                                : Split accross interleaves
Interleave, duration                     : 26 ms (0.65 video frame)
Writing library                          : LAME3.96.1





CAPTURAS


Quiero aclarar que todas las capturas son propias, sacadas directamente de las películas, para que haya mejor claridad sobre el material a descargar


(La marca de agua solo está en las capturas, el vídeo está totalmente limpio)













































LINK DE DESCARGA



Bueno, como lo comentaba es un link por película, lo dejaré solo para descarga con el JDownloader, esperando que esta vez duren los link.




1999 - tuvalu





[/JD]








Para mi, mas que los puntos, lo 


importante son sus comentarios 


para poder mejorar, con un 


gracias es suficiente..













Tuvalu (1999) - DvdRip 1 link
0 Puntos Score: 0/10
Visitas: 1091 Favoritos: 1
1 Comentarios Tuvalu (1999) - DvdRip 1 link
pelicula muda... ha pasado mucho tiempo que no he visto una

bajando y gracias totales  
Para dejar un comentario Registrate! o.. eres ya usuario? Accede!