Persépolis (2007) - Español - 1 link





Hola amigos de Identi... Estoy de regreso después de perder 1 Tera en películas y adicional que todos los link de mis post se cayeran.  Estoy consiguiendo nuevamente las películas que ya había publicado pero con mejor calidad... por favor esperen...



En esta ocasión traigo una película francesa bastante interesante...



Espero que la disfruten.... 






2007 - persepolis









SINOPSIS



Persépolis es una película francesa de animación basada en la novela gráfica homónima de Marjane Satrapi dirigida por Vincent Paronnaud y producida por Xavier Rigault y Marc-Antoine Robert. La película, con música de Olivier Bernet, obtuvo una candidatura a la Palma de Oro y consiguió el Premio del jurado en el Festival de Cannes 2007. También consiguió el Premio Especial del Jurado en el Festival Internacional de Cine Cinemanila. Fue seleccionada para ser la película inaugural del festival de cine de Valladolid (España).
                                                                                                                                             (Tomado de Wikipedia)








MEDIA INFO


Esa es la ficha técnica sacada de la película, se informa formato, peso, calidad, duración, Bit rate y demás datos que son necesarios para conocer la calidad real de la misma, para aquellos siempre solicitan datos puntuales:



General

General
}Format                                   : MPEG-4
Format profile                           : Base Media
Codec ID                                 : isom
File size                                : 908 MiB
Duration                                 : 1h 35mn
Overall bit rate                         : 1 331 Kbps
Writing application                      : Lavf55.34.101

Video
ID                                       : 1
Format                                   : MPEG-4 Visual
Format profile                           : [email protected]
Format settings, BVOP                    : No
Format settings, QPel                    : No
Format settings, GMC                     : No warppoints
Format settings, Matrix                  : Default (H.263)
Codec ID                                 : 20
Duration                                 : 1h 35mn
Bit rate mode                            : Constant
Bit rate                                 : 1 199 Kbps
Width                                    : 1 920 pixels
Height                                   : 1 080 pixels
Display aspect ratio                     : 1.85:1
Original display aspect ratio            : 1.85:1
Frame rate mode                          : Constant
Frame rate                               : 24.000 fps
Color space                              : YUV
Chroma subsampling                       : 4:2:0
Bit depth                                : 8 bits
Scan type                                : Progressive
Compression mode                         : Lossy
Bits/(Pixel*Frame)                       : 0.024
Stream size                              : 818 MiB (90%)
Writing library                          : Lavc55.52.102

Audio
ID                                       : 2
Format                                   : AAC
Format/Info                              : Advanced Audio Codec
Format profile                           : LC
Codec ID                                 : 40
Duration                                 : 1h 35mn
Bit rate mode                            : Constant
Bit rate                                 : 128 Kbps
Channel count                            : 2 channels
Channel positions                        : Front: L R
Sampling rate                            : 44.1 KHz
Compression mode                         : Lossy
Stream size                              : 87.3 MiB (10%)






CAPTURAS


Quiero aclarar que todas las capturas son propias, sacadas directamente de las películas, para que haya mejor claridad sobre el material a descargar


(La marca de agua solo está en las capturas, el vídeo está totalmente limpio)




























LINK DE DESCARGA



Bueno, como lo comentaba es un link por película, lo dejaré solo para descarga con el JDownloader, esperando que esta vez duren los link.




2007 - persepolis












Para mi, mas que los puntos, lo 


importante son sus comentarios 


para poder mejorar, con un 


gracias es suficiente..













Persépolis (2007) - Español - 1 link
10 Puntos Score: 10/10
Visitas: 1862 Favoritos: 0
Ver los usuarios que votaron...
6 Comentarios Persépolis (2007) - Español - 1 link
Gracias por compartir el buen cine!!
Gracias. Muy bien la pel?
que idioma esta brother?
Para dejar un comentario Registrate! o.. eres ya usuario? Accede!