La Estrategia del Caracol (1993) - DvdRip - 1 link





Hola amigos de Identi... Estoy de regreso después de perder 1 Tera en películas y adicional que todos los link de mis post se cayeran.  Estoy consiguiendo nuevamente las películas que ya había publicado pero con mejor calidad... por favor esperen...



En esta ocasión traigo un clásico del cine Colombiano (mi patria) ...



Espero que la disfruten.... 






1993 - la estrategia del caracol











SINOPSIS




La estrategia del caracol es una película colombiana de 1993 dirigida por el cineasta y director Sergio Cabrera. La obra es una comedia-drama y relato de ficción sobre la libertad y la solidaridad, una metáfora del acoso sexual, inspirada en un hecho real. La película trata de las penurias de las familias de bajos ingresos en Bogotá. La brecha entre ricos y pobres y sus interacciones en un sistema social altamente estratificado. Los temas más importantes de la película son la ocupación y propiedad de vivienda y el acoso inmobiliario.
 
 
 
Sergio Cabrera y el guionista Humberto Dorado articulan un mosaico de personajes de diferentes clases sociales, ideologías e ideas políticas que se constituyen en representaciones simbólicas perfectamente extrapolables a cualquier otra época y sitio del mundo.
 
 
 
La película es protagonizada por Frank Ramírez, Florina Lemaitre, Humberto Dorado, Fausto Cabrera y Carlos Vives. La película es una de las ganadoras del Festival Internacional de Cine de Berlín y del Festival de Cine de Biarritz de Cine de América Latina, y galardonada además con otros treinta premios en diversos certámenes internacionales.

                                                                                                                                             (Tomado de Wikipedia)








MEDIA INFO


Esa es la ficha técnica sacada de la película, se informa formato, peso, calidad, duración, Bit rate y demás datos que son necesarios para conocer la calidad real de la misma, para aquellos siempre solicitan datos puntuales:



General

Format                                   : AVI
Format/Info                              : Audio Video Interleave
File size                                : 986 MiB
Duration                                 : 1h 45mn
Overall bit rate                         : 1 301 Kbps
Writing application                      : VirtualDubMod 1.5.10.1 (build 2366/release)
Writing library                          : VirtualDubMod build 2366/release

Video
ID                                       : 0
Format                                   : MPEG-4 Visual
Format profile                           : Advanced [email protected]
Format settings, BVOP                    : 2
Format settings, QPel                    : No
Format settings, GMC                     : No warppoints
Format settings, Matrix                  : Default (H.263)
Codec ID                                 : XVID
Codec ID/Hint                            : XviD
Duration                                 : 1h 45mn
Bit rate                                 : 1 163 Kbps
Width                                    : 640 pixels
Height                                   : 360 pixels
Display aspect ratio                     : 16:9
Frame rate                               : 25.000 fps
Color space                              : YUV
Chroma subsampling                       : 4:2:0
Bit depth                                : 8 bits
Scan type                                : Progressive
Compression mode                         : Lossy
Bits/(Pixel*Frame)                       : 0.202
Stream size                              : 882 MiB (89%)
Writing library                          : XviD 1.0.3 (UTC 2004-12-20)

Audio
ID                                       : 1
Format                                   : MPEG Audio
Format version                           : Version 1
Format profile                           : Layer 3
Codec ID                                 : 55
Codec ID/Hint                            : MP3
Duration                                 : 1h 45mn
Bit rate mode                            : Constant
Bit rate                                 : 128 Kbps
Channel count                            : 2 channels
Sampling rate                            : 44.1 KHz
Compression mode                         : Lossy
Stream size                              : 97.0 MiB (10%)
Alignment                                : Split accross interleaves
Interleave, duration                     : 40 ms (1.00 video frame)
Interleave, preload duration             : 500 ms





CAPTURAS


Quiero aclarar que todas las capturas son propias, sacadas directamente de las películas, para que haya mejor claridad sobre el material a descargar


(La marca de agua solo está en las capturas, el vídeo está totalmente limpio)






























LINK DE DESCARGA



Bueno, como lo comentaba es un link por película, lo dejaré solo para descarga con el JDownloader, esperando que esta vez duren los link.




1993 - la estrategia del caracol













Para mi, mas que los puntos, lo 


importante son sus comentarios 


para poder mejorar, con un 


gracias es suficiente..













La Estrategia del Caracol (1993) - DvdRip - 1 link
40 Puntos Score: 10/10
Visitas: 2075 Favoritos: 5
Ver los usuarios que votaron...
14 Comentarios La Estrategia del Caracol (1993) - DvdRip - 1 link
Colocaste mal la categor?
@Jaedos jajajajaja... tienes toda la raz?
excelente , muchas gracias
Se ve interesante  y sobre todo el mensaje de la pel?
:cool:bue aporte
la pelicula colombiana mas galardonada en la historia del cine colombiano, muchas gracias por compartir tremendo clasico.
Salu2  
me pasarias los links por privado ,,de tuvalu y persepolis tambien el jdowloader nolo puedo visualizar,gracias por el aporte
MAN me salvaste la necesitaba de urgencia muchas gracias!!!
gracias ya la tengo ando buscando mas colombianas podr?
genial crei que no la encontraria y tu la compartes muchas gracias
Para dejar un comentario Registrate! o.. eres ya usuario? Accede!