Water For Elephants (2011) R5 Xvid READ NFO-LKRG

Water For Elephants (2011) R5 Xvid READ NFO-LKRG





Sinopsis:

Nos trasladamos a la época en la Estados Unidos sufrió la Gran Depresión. Durante la misma, los padres de Jacob (Robert Pattinson) son asesinados, motivo por el que el joven se ve obligado a abandonar sus estudios de veterinaria para buscar un trabajo con el que poder ganarse la vida. De este modo, y sin saber muy bien a donde ir, acepta enrolarse en el circo de los hermano Benzini como cuidador de los animales que forman parte del espectáculo.

Sin esperarlo, el circo comienza a absorber por completo a Jacob. La magia del directo, la tensión de los ensayos y especialmente una bella amazona llamada Marlena (Reese Witherspoon) se apoderan de su corazón. Jacob termina involucrándose en el circo como si realmente hubiese sido lo que había deseado desde que nació. No obstante, su obsesión por Marlen le llevará a enfrentarse a August (Christolph Waltz), un domador con un carácter bastante peligroso que no tiene ninguna intención de desprenderse de su esposa.

File Name    Water For Elephants 2011 R5 Xvid READ NFO LKRG
Description   

Format;AVI

File Size:1.12gb

Video
ID                   : 0
Format                 : MPEG-4 Visual
Format profile             : Advanced [email protected]
Format settings, BVOP        : Yes
Format settings, QPel        : No
Format settings, GMC         : No warppoints
Format settings, Matrix      : Custom
Codec ID               : XVID
Codec ID/Hint            : XviD
Duration               : 5mn 27s
Bit rate               : 1 148 Kbps
Width                  : 680 pixels
Height                 : 288 pixels
Display aspect ratio         : 2.35:1
Frame rate               : 25.000 fps
Color space              : YUV
Chroma subsampling         : 4:2:0
Bit depth                : 8 bits
Scan type                : Progressive
Bits/(Pixel*Frame)         : 0.234
Stream size              : 44.8 MiB (4%)
Writing library            : XviD 1.2.1 (UTC 2008-12-04)

Audio
ID                   : 1
Format                 : MPEG Audio
Codec ID               : 55
Codec ID/Hint            : MP3
Duration               : 1h 49mn
Bit rate               : 128 Kbps
Channel(s)               : 2 channels
Sampling rate            : 44.1 KHz
Stream size              : 100 MiB (9%)
Alignment                : Aligned on interleaves



Duration:1:50

Release Date:2011

Language:English

Release Notes

Video:Vodi Slonam DVD5 thanks
Audio:Own







Water For Elephants (2011) R5 Xvid READ NFO-LKRG
0 Puntos Score: 0/10
Visitas: 1197 Favoritos: 2
1 Comentarios Water For Elephants (2011) R5 Xvid READ NFO-LKRG
  parece buena, gracias!
Para dejar un comentario Registrate! o.. eres ya usuario? Accede!