EvilYugo
"The Only Church That Illuminates, Is That One Burn In Flames..."

Metal Evolution Lost Episode: Extreme Metal









Metal Evolution Lost Episode: Extreme Metal es un viaje que describe los comienzos del Black Metal, despues pasa a la escena Grindcore Britanico, posteriormente el Death Metal en Tampa/Florida, sus intentos de censura por parte del gobierno americano, haciendo hincapié en el Black Metal Sinfonico proveniente de Noruega y su respectivo repudio por parte de las bandas mas puristas y tradicionales. Para finalizar con la escena Death Progresiva proveniente de Francia; asi como la implementacion de nuevas ideas y conceptos.


Datos Técnicos


General
Format: MPEG-4
File size: 1.13 Gb
Duration: 51 min 33 sec
Overall bit rate mode: Variable
Overall bit rate: 3 150 Kbps
Writing application: Lavf51.12.1



Video
ID: 1
Format: AVC
Format/Info: Advanced Video Codec
Format profile: [email protected]
Format settings, CABAC: No
Format settings, ReFrames: 1 frame
Format settings, GOP: M=1, N=12
Codec ID: avc1
Codec ID/Info: Advanced Video Coding
Duration: 51 min 33 sec
Bit rate: 3 005 Kbps
Width: 1 280 pixels
Height: 720 pixels
Display aspect ratio: 16:9
Frame rate mode: Constant
Frame rate: 23.976 fps
Color space: YUV
Chroma subsampling : 4:2:0
Bit depth: 8 bits
Scan type: Progressive
Bits/(Pixel*Frame): 0.136
Stream size: 1.08 GiB (95%)
Language: English



Audio
ID: 2
Format: AAC
Format/Info: Advanced Audio Codec
Format profile: LC
Codec ID: 40
Duration: 51mn 32s
Bit rate mode: Variable
Bit rate : 140 Kbps
Channel(s): 2 channels
Channel positions: Front: L R
Sampling rate: 48.0 KHz
Compression mode : Lossy
Stream size: 51.8 MiB (4%)
Language: English





Metal Evolution Lost Episode: Extreme Metal








EvilYugo



Metal Evolution Lost Episode: Extreme Metal
65 Puntos Score: 8.1/10
Visitas: 1458 Favoritos: 4
Ver los usuarios que votaron...
38 Comentarios Metal Evolution Lost Episode: Extreme Metal
wtf jajaja no sabia de este programa
se ve curioso  
Muchas gracias.  
@satyr_777 @mateomax @Profanator @emptiness_ @cessar @mauro_team @gnc1990 Gracias por valorar el post, un detalle nada mas, por el horario en el que postee se me olvido especificar que viene subtitulado  
Buen material sobre todo por que sale una de mis bandas favoritas Hell Hammer/Celtic Frost  
y los atros capitulos . donde puedeo encontrarlos?
@dark72 @Duliori_28 Igualmente wns, gracias x pasarse al post  
Aqui mismo en esta web
@EvilYugo no me gusto para nada jajajaja
lo desapruebo .........
pero gracias por compartirlo XD  es un buen comienzo para los que quieren empezar a escuchar metal
El que faltaba.Gracias
@Profanator Era obvio que no estuviera lo suficientemente documentado, mira que 51 Min para explicar todos los subgeneros es poco. Minimo unas 4 Horas o mas para detallarlo a fondo, tal vez destinar un capitulo a cada uno, pero en fin, como dices es para que conozcan las raices
@jerrylook de nada, saludos  
Cita EvilYugo: Mostrar
es un tipico blackerillo true metal  
@Giank767 de hecho no, pero para que explicarte?

@EvilYugo ... ayer no me qued?
@Profanator Despues subo algo de material para que te conviertas en todo un blackerillo true metal xD
@EvilYugo ya estas

Yo quiero ser tan tan malo como el mismo Sat?
Jaja lol yo me lo acabo de ver y no esta mal para ser un programa de tv, eso si la parte del black me han dado ganas de quitarlo y todo  
Cita Profanator: Mostrar
Cita Giank767: Mostrar
no soy muy adepto a este genero en particular = lo escucho.... Muchas gracias tremendo aporte = compadre... una consulta no tienes los programas anteriores...? gracias nuevamente
@profevivar Solo subi ese capitulo por que era el unico que faltaba, los demas programas otro user los posteo con anterioridad, espero haberte ayudado, saludos weon  
son un cago de risa estos programas, cualquier cosa que venga de VH1 hay que mirarlo como una comedia, no se hagan mala sangre, todos sabemos que este tipo apesta, miren cuando va a Europa en el capitulo del power metal... desopilante!!! gracias por el aporte  
Excelente aporte  
@espectro66 Gracias x valorar el post, saludos
gracias por compartir
@magog Igualmente wn, saludos
Excelente aporte, gracias te dejo +10
@RHRoland De nada wn, saludos  
gracias muy buen material
Para dejar un comentario Registrate! o.. eres ya usuario? Accede!