Oops.. Este post tiene los enlaces eliminados!

Identi revisa las denuncias de los usuarios en busca de enlaces eliminados que no dejan descargar los archivos, este mensaje te informa que este post que estas viendo tiene los enlaces eliminados.

Usa el Buscador

Por favor, te recomendamos que uses el buscador para encontrar más alternativas.

El Vengador del Futuro-1990-1080p

  • Categoría: Reciclaje
  • Publicado hace más de 2 años











En 2084, uno de los sueños de Douglas Quaid (Arnold Schwarzenegger) es poder ir de vacaciones a Marte. Pero, su mujer (Sharon Stone) no lo comparte y por ello él decide acudir a una compañía especializada en implantar falsos recuerdos en la mente humana para creer que ha viajado al planeta rojo. Lo que no imagina es hasta qué punto puede resultar peligroso no saber si un recuerdo es falso o verdadero: tras un error en la implantación, Quaid creerá que es un agente secreto al que han descubierto y al que quieren matar. Pronto descubrirá que, realmente, alguien quiere acabar con su vida y que se encuentra en una situación muy complicada.


























Format                                   : Matroska
Format version                           : Version 2
File size                                : 3.98 GiB
Duration                                 : 1h 53mn
Overall bit rate                         : 5 022 Kbps
Encoded date                             : UTC 2014-02-27 18:45:21
Writing application                      : mkvmerge v5.1.0 ('And so it goes') built on Nov 28 2011 23:58:28
Writing library                          : libebml v1.2.3 + libmatroska v1.3.0

Video
ID                                       : 1
Format                                   : AVC
Format/Info                              : Advanced Video Codec
Format profile                           : [email protected]
Format settings, CABAC                   : Yes
Format settings, ReFrames                : 1 frame
Muxing mode                              : Header stripping
Codec ID                                 : V_MPEG4/ISO/AVC
Duration                                 : 1h 53mn
Bit rate                                 : 4 666 Kbps
Width                                    : 1 920 pixels
Height                                   : 1 040 pixels
Display aspect ratio                     : 16:9
Frame rate                               : 24.000 fps
Color space                              : YUV
Chroma subsampling                       : 4:2:0
Bit depth                                : 8 bits
Scan type                                : Progressive
Bits/(Pixel*Frame)                       : 0.097
Stream size                              : 3.70 GiB (93%)
Default                                  : Yes
Forced                                   : No

Audio
ID                                       : 2
Format                                   : AC-3
Format/Info                              : Audio Coding 3
Mode extension                           : CM (complete main)
Muxing mode                              : Header stripping
Codec ID                                 : A_AC3
Duration                                 : 1h 53mn
Bit rate mode                            : Constant
Bit rate                                 : 256 Kbps
Channel(s)                               : 2 channels
Channel positions                        : Front: L R
Sampling rate                            : 48.0 KHz
Bit depth                                : 16 bits
Compression mode                         : Lossy
Stream size                              : 208 MiB (5%)
Title                                    : Audio Español Latino
Language                                 : Latin
Default                                  : Yes
Forced                                   : No























1080Amigos


peliculas - programas
66 Puntos Score: 8.3/10
Visitas: 3397 Favoritos: 4
Ver los usuarios que votaron...
9 Comentarios El Vengador del Futuro-1990-1080p
gracias bro saludos
muy bueno mi amigo!!!!  
muchas gracias  
gracias amigo
De las buenas de chuacher
Otros +10. Buenos aportes.
hola amigo gracias, me puedes pasar los links por mp, por favor
Para dejar un comentario Registrate! o.. eres ya usuario? Accede!
Facebook Identi