Silver Bullet - 1985 - HD - Dual - 1 Link





Hola amigos de Identi... Estoy de regreso después de perder 1 Tera en películas y adicional que todos los link de mis post se cayeran.  Estoy consiguiendo nuevamente las películas que ya había publicado pero con mejor calidad... por favor esperen...



En esta ocasión traigo otro clásico pero esta vez de terror, Silver Bullet, yo la conocí como Miedo Azul....


Algunas capturas fuertes pero eso erra el terror de los 80´s.... jajaja



Espero que la disfruten.... 









1985 - silver bullet 

o

miedo azul















SINOPSIS




Silver Bullet es una película de 1985 de terror basada en la novela de Stephen King ciclo del hombre lobo . Está protagonizada por Gary Busey , Everett McGill , Megan Follows , Corey Haim , Terry O'Quinn , Lawrence Tierney , Bill Smitrovich , Kent Broadhurst , David Hart y James Gammon . La película está dirigida por Dan Attias y producida por Dino De Laurentiis .

                                                                                                          (Tomado de Wikipedia)


El horripilante descubrimiento de cadáveres mutilados perturba la paz deTarker's Mills, una pequeña población de Estados Unidos. El joven Marty Coslaw, convencido de que el culpable es un hombre lobo, consigue la ayuda de su hermana para buscarlo. (FILMAFFINITY)


                                                                                                                                                  




MEDIA INFO


Esa es la ficha técnica sacada de la película, se informa formato, peso, calidad, duración, Bit rate y demás datos que son necesarios para conocer la calidad real de la misma, para aquellos siempre solicitan datos puntuales:



General


General
Format                                   : Matroska
Format version                           : Version 4 / Version 2
File size                                : 953 MiB
Duration                                 : 1h 30mn
Overall bit rate                         : 1 465 Kbps
Encoded date                             : UTC 2014-07-21 17:48:05
Writing application                      : mkvmerge v7.0.0 ('Where We Going') 64bit built on Jun  9 2014 15:16:27
Writing library                          : libebml v1.3.0 + libmatroska v1.4.1
_STATISTICS_WRITING_APP                  : mkvmerge v7.0.0 ('Where We Going') 64bit built on Jun  9 2014 15:16:27
_STATISTICS_WRITING_DATE_UTC             : 2014-07-21 17:48:05
_STATISTICS_TAGS                         : BPS DURATION NUMBER_OF_FRAMES NUMBER_OF_BYTES
DURATION                                 : 01:26:51.000000000
NUMBER_OF_FRAMES                         : 694
NUMBER_OF_BYTES                          : 26010

Video
ID                                       : 1
Format                                   : AVC
Format/Info                              : Advanced Video Codec
Format profile                           : [email protected]
Format settings, CABAC                   : Yes
Format settings, ReFrames                : 4 frames
Codec ID                                 : V_MPEG4/ISO/AVC
Duration                                 : 1h 30mn
Nominal bit rate                         : 985 Kbps
Width                                    : 1 280 pixels
Height                                   : 544 pixels
Display aspect ratio                     : 2.35:1
Frame rate mode                          : Constant
Frame rate                               : 25.000 fps
Original frame rate                      : 23.976 fps
Color space                              : YUV
Chroma subsampling                       : 4:2:0
Bit depth                                : 8 bits
Scan type                                : Progressive
Bits/(Pixel*Frame)                       : 0.057
Writing library                          : x264 core 140 r2377 1ca7bb9
Default                                  : No
Forced                                   : No

Audio #1
ID                                       : 2
Format                                   : MPEG Audio
Format version                           : Version 1
Format profile                           : Layer 3
Mode                                     : Joint stereo
Mode extension                           : MS Stereo
Codec ID                                 : A_MPEG/L3
Codec ID/Hint                            : MP3
Duration                                 : 1h 30mn
Bit rate mode                            : Constant
Bit rate                                 : 128 Kbps
Channel count                            : 2 channels
Sampling rate                            : 48.0 KHz
Compression mode                         : Lossy
Delay relative to video                  : 1s 0ms
Stream size                              : 83.3 MiB (9%)
Title                                    : Castellano
Language                                 : Spanish
Default                                  : No
Forced                                   : No

Audio #2
ID                                       : 3
Format                                   : AAC
Format/Info                              : Advanced Audio Codec
Format profile                           : LC
Codec ID                                 : A_AAC
Duration                                 : 1h 30mn
Channel count                            : 2 channels
Channel positions                        : Front: L R
Sampling rate                            : 44.1 KHz
Compression mode                         : Lossy
Delay relative to video                  : 510ms
Title                                    : Español Latino
Language                                 : Spanish
Default                                  : Yes
Forced                                   : Yes

Audio #3
ID                                       : 4
Format                                   : AC-3
Format/Info                              : Audio Coding 3
Mode extension                           : CM (complete main)
Format settings, Endianness              : Big
Codec ID                                 : A_AC3
Duration                                 : 1h 30mn
Bit rate mode                            : Constant
Bit rate                                 : 320 Kbps
Channel count                            : 2 channels
Channel positions                        : Front: L R
Sampling rate                            : 48.0 KHz
Bit depth                                : 16 bits
Compression mode                         : Lossy
Stream size                              : 208 MiB (22%)
Title                                    : Inglés
Language                                 : English
Default                                  : No
Forced                                   : No

Text #1
ID                                       : 5
Format                                   : UTF-8
Codec ID                                 : S_TEXT/UTF8
Codec ID/Info                            : UTF-8 Plain Text
Title                                    : Inglés
Language                                 : English
Default                                  : No
Forced                                   : No

Text #2
ID                                       : 6
Format                                   : UTF-8
Codec ID                                 : S_TEXT/UTF8
Codec ID/Info                            : UTF-8 Plain Text
Title                                    : Español
Language                                 : Spanish
Default                                  : No
Forced                                   : No



CAPTURAS


Quiero aclarar que todas las capturas son propias, sacadas directamente de las películas, para que haya mejor claridad sobre el material a descargar


(La marca de agua solo está en las capturas, el vídeo está totalmente limpio)

































LINK DE DESCARGA



Bueno, como lo comentaba es un link por película, lo dejaré solo para descarga con el JDownloader, esperando que esta vez duren los link.







1985 - silver bullet o miedo azul








Para mi, mas que los puntos, lo 


importante son sus comentarios 


para poder mejorar, con un 


gracias es suficiente..













Silver Bullet - 1985 - HD - Dual - 1 Link
75 Puntos Score: 9.4/10
Visitas: 2068 Favoritos: 2
Ver los usuarios que votaron...
32 Comentarios Silver Bullet - 1985 - HD - Dual - 1 Link
Se ve interesante, muchas gracias
que clasico gracias
Gracias, no la tenia en esta calidad...
La buscaba,gracias!!!!!
@Tekken007 Muy buen aporte.
Muchas gracias por compartirlo.
Salu2      
@ricardo130 Espero que la disfrutes amigo... terror de los 80?
exelenteeee   muchas gracias
muy bueno gracias  
gracias siempre la he querido ver esta vez no la dejare pasar      
tremendo recuerdo grandisimo aporte  
Aqui estoy comentando otra vez amigo necesito un gran favor tuyo podr?
@saintmx Gracias a ti por pasar!!!
@Angelkaido Por nada amigo...!!!
@HYAKIMARU jajaja.. no te la pierdas!!!
@devlekeren Que la disfrutes amigo...!!!
@peliculash  
@cinemaclub Claro amigo, no hay problema... Lo importante es compartirla, por el contrario me alaga el hecho que mi trabajo sea valorado y se quiera publicar en otras p?
@Tekken007 muchas gracias amigo  
No hay palabras para agradecer este aporte, me llevaste de vuelta a los 80's  
Upps, creo que se cay?
no seas malo por fa vuelve a resubirla
sos un capo. muchisimas gracias mucho tienpo buscandola y al fin.
muchas grasias tus aportes se ven interesantes.
@Tekken007 que bien que la subiste nuevamente que no me dio tiempo de descargarla la primera vez  
excelente calidad, peso y lo mejor dual +10  
gran aporte, pero la comprb?
@elkin82 uy amigo... voy a revisarlo para ver que puede ser....  
De lujote!! tantos recuerdos, gracias amigo  
hola amigo, no puedo descargar , no me suben los link al jdonwloader ... podrias pasarme los links por privado...
Para dejar un comentario Registrate! o.. eres ya usuario? Accede!