Pandillas de New York Brrip-Dual Audio-Mega 1 Link





Hola amigos de Identi... Estoy de regreso después de perder 1 Tera en películas y adicional que todos los link de mis post se cayeran.  Estoy consiguiendo nuevamente las películas que ya había publicado pero con mejor calidad... por favor esperen...



En esta ocasión traigo la película PANDILLAS DE NEW YORK, fué algo difícil de conseguir....



La calidad del video es de lo mejor!!!!




Espero que la disfruten.... 





2002 - PANDILLAS DE NEW YORK












SINOPSIS




Gangs of New York (en Hispanoamérica, Pandillas de Nueva York) es una película del año 2002 dirigida por Martin Scorsese, y ambientada en la mitad del siglo XIX en el distrito de Five Points de Nueva York. Fue escrita por Jay Cocks, Steven Zaillian y Kenneth Lonergan. Fue candidata a diez premios Óscars, incluyendo los de mejor película y mejor director; sin embargo, ninguno ganó.

La película está basada en el libro The Gangs of New York (1928), de Herbert Asbury (1889 ? 1963), pero de manera tan vaga que fue propuesta como candidata al Óscar al mejor guion original.

(Tomado de Wikipedia)








MEDIA INFO


Esa es la ficha técnica sacada de la película, se informa formato, peso, calidad, duración, Bit rate y demás datos que son necesarios para conocer la calidad real de la misma, para aquellos siempre solicitan datos puntuales:



General


Format                                   : Matroska

Format version                           : Version 4 / Version 2

File size                                : 2.35 GiB

Duration                                 : 2h 46mn

Overall bit rate                         : 2 018 Kbps

Encoded date                             : UTC 2014-07-24 03:01:41

Writing application                      : mkvmerge v7.0.0 ('Where We Going') 64bit built on Jun  9 2014 15:16:27

Writing library                          : libebml v1.3.0 + libmatroska v1.4.1

_STATISTICS_WRITING_APP                  : mkvmerge v7.0.0 ('Where We Going') 64bit built on Jun  9 2014 15:16:27

_STATISTICS_WRITING_DATE_UTC             : 2014-07-24 03:01:41

_STATISTICS_TAGS                         : BPS DURATION NUMBER_OF_FRAMES NUMBER_OF_BYTES

DURATION                                 : 02:36:18.619000000

NUMBER_OF_FRAMES                         : 1626

NUMBER_OF_BYTES                          : 62185



Video


ID                                       : 1

Format                                   : AVC

Format/Info                              : Advanced Video Codec

Format profile                           : [email protected]

Format settings, CABAC                   : Yes

Format settings, ReFrames                : 3 frames

Codec ID                                 : V_MPEG4/ISO/AVC

Duration                                 : 2h 46mn

Bit rate                                 : 1 505 Kbps

Width                                    : 1 920 pixels

Height                                   : 816 pixels

Display aspect ratio                     : 2.35:1

Frame rate mode                          : Constant

Frame rate                               : 23.976 fps

Color space                              : YUV

Chroma subsampling                       : 4:2:0

Bit depth                                : 8 bits

Scan type                                : Progressive

Bits/(Pixel*Frame)                       : 0.040

Stream size                              : 1.71 GiB (73%)

Writing library                          : x264 core 130 r2273 b3065e6

Default                                  : Yes

Forced                                   : No



Audio #1


ID                                       : 2

Format                                   : AC-3

Format/Info                              : Audio Coding 3

Mode extension                           : CM (complete main)

Format settings, Endianness              : Big

Codec ID                                 : A_AC3

Duration                                 : 2h 46mn

Bit rate mode                            : Constant

Bit rate                                 : 384 Kbps

Channel count                            : 6 channels

Channel positions                        : Front: L C R, Side: L R, LFE

Sampling rate                            : 48.0 KHz

Bit depth                                : 16 bits

Compression mode                         : Lossy

Stream size                              : 458 MiB (19%)

Title                                    : Inglés

Language                                 : English

Default                                  : No

Forced                                   : No



Audio #2


ID                                       : 4

Format                                   : MPEG Audio

Format version                           : Version 1

Format profile                           : Layer 3

Mode                                     : Joint stereo

Mode extension                           : MS Stereo

Codec ID                                 : A_MPEG/L3

Codec ID/Hint                            : MP3

Duration                                 : 2h 46mn

Bit rate mode                            : Constant

Bit rate                                 : 128 Kbps

Channel count                            : 2 channels

Sampling rate                            : 48.0 KHz

Compression mode                         : Lossy

Stream size                              : 153 MiB (6%)

Title                                    : Español Latino

Writing library                          : LAME3.99r

Encoding settings                        : -m j -V 4 -q 2 -lowpass 17 -b 128

Language                                 : Spanish

Default                                  : Yes

Forced                                   : No



Text #1


ID                                       : 3

Format                                   : UTF-8

Codec ID                                 : S_TEXT/UTF8

Codec ID/Info                            : UTF-8 Plain Text

Title                                    : Inglés

Language                                 : English

Default                                  : No

Forced                                   : No



Text #2


ID                                       : 5

Format                                   : UTF-8

Codec ID                                 : S_TEXT/UTF8

Codec ID/Info                            : UTF-8 Plain Text

Title                                    : Español

Language                                 : Spanish

Default                                  : No

Forced                                   : No



Text #3


ID                                       : 6

Format                                   : UTF-8

Codec ID                                 : S_TEXT/UTF8

Codec ID/Info                            : UTF-8 Plain Text

Title                                    : Inglés

Language                                 : English

Default                                  : No

Forced                                   : No









CAPTURAS


Quiero aclarar que todas las capturas son propias, sacadas directamente de las películas, para que haya mejor claridad sobre el material a descargar


(La marca de agua solo está en las capturas, el vídeo está totalmente limpio)

































LINK DE DESCARGA



Bueno, como lo comentaba es un link por película, lo dejaré solo para descarga con el JDownloader, para que duren los link.






[ltr][/ltr]








Para mi, mas que los puntos, lo 


importante son sus comentarios 


para poder mejorar, con un 


gracias es suficiente..













Pandillas de New York Brrip-Dual Audio-Mega 1 Link
35 Puntos Score: 8.8/10
Visitas: 2717 Favoritos: 5
Ver los usuarios que votaron...
15 Comentarios Pandillas de New York Brrip-Dual Audio-Mega 1 Link
@marpamive A ti por pasar!!!

@jon2691  Gracias por los puntos!!!

 
Muchas gracias  
@Yamiever  A ti por pasar y por los puntos...  
buena peli  
imperdible la actuacion del bigotudo que es m?
@shamamoto jajajajaja...   ... disfrutala amigo!!!
gracias excelente aporte
no uso JD ni mypony, me podes pasar el link x MP
links caidos  
gracias por resubir los archivos y por avisarme te dejo puntos+10
Para dejar un comentario Registrate! o.. eres ya usuario? Accede!