Trilogía Indiana Jones Brrip- Tri Audio-Mega 1Link





Hola amigos de Identi... Estoy de regreso después de perder 1 Tera en películas y adicional que todos los link de mis post se cayeran.  Estoy consiguiendo nuevamente las películas que ya había publicado pero con mejor calidad... por favor esperen...



En esta ocasión traigo la TRILOGÍA de Indiana Jones, una de las mejores en la historia del cine.  Con todo respeto a los muchos fans de esta saga, para mí la última película me parece una falta de respeto al personaje, por este motivo no la publico.



Respecto al TRI-AUDIO, la película viene con Audio Inglés, Audio Latino Original (Con el que crecimos muchos) y Audio Latino de un redoblaje oficial que se realizó años después.



La calidad del video es de lo mejor!!!!



Espero que la disfruten.... 





1981 ? raiders of the lost ark 


indiana jones y los cazadores del arca perdida










SINOPSIS




En 1936, Indiana Jones es contratado por el gobierno estadounidense para localizar el Arca de la Alianza, objeto sagrado buscado por los nazis para volverse invencibles según el Antiguo Testamento (apoyándose en los acontecimientos ocurridos a los israelitas). Los nazis cuentan con la ayuda del rival de Jones, el arqueólogo René Belloq. Con la ayuda de sus amigos Marion Ravenwood y Sallah, Indiana logra encontrar el Arca en Egipto. Sin embargo, los nazis consiguen robarla y capturar a Indiana y Marion. Belloq y los nazis realizan una ceremonia religiosa para abrir el Arca, pero al hacerlo desatan la Ira de Dios. Entonces, todos los hombres del destacamento de Belloq mueren absorbidos por la fuerza sobrenatural contenida en el interior de esa reliquia. Indiana y Marion sobreviven al cerrar sus ojos y no ver los destellos del místico poder. Al final, el Arca es llevada a EE. UU., donde se guarda en un almacén secreto.

(Tomado de Wikipedia)








MEDIA INFO


Esa es la ficha técnica sacada de la película, se informa formato, peso, calidad, duración, Bit rate y demás datos que son necesarios para conocer la calidad real de la misma, para aquellos siempre solicitan datos puntuales:



General


Format                                   : Matroska
Format version                           : Version 4 / Version 2
File size                                : 4.44 GiB
Duration                                 : 1h 55mn
Overall bit rate mode                    : Variable
Overall bit rate                         : 5 518 Kbps
Encoded date                             : UTC 2015-03-04 02:49:58
Writing application                      : mkvmerge v6.3.0 ('You can't stop me!') built on Jun 28 2013 20:09:41
Writing library                          : libebml v1.3.0 + libmatroska v1.4.0




Video


ID                                       : 1
Format                                   : AVC
Format/Info                              : Advanced Video Codec
Format profile                           : [email protected]
Format settings, CABAC                   : Yes
Format settings, ReFrames                : 4 frames
Codec ID                                 : V_MPEG4/ISO/AVC
Duration                                 : 1h 55mn
Bit rate                                 : 4 499 Kbps
Width                                    : 1 920 pixels
Height                                   : 816 pixels
Display aspect ratio                     : 2.35:1
Frame rate mode                          : Constant
Frame rate                               : 23.976 fps
Color space                              : YUV
Chroma subsampling                       : 4:2:0
Bit depth                                : 8 bits
Scan type                                : Progressive
Bits/(Pixel*Frame)                       : 0.120
Stream size                              : 3.53 GiB (79%)
Writing library                          : x264 core 116 r2074 2641b9e
Default                                  : No
Forced                                   : No




Audio #1

ID                                       : 2
Format                                   : MPEG Audio
Format version                           : Version 1
Format profile                           : Layer 3
Mode                                     : Joint stereo
Mode extension                           : MS Stereo
Codec ID                                 : A_MPEG/L3
Codec ID/Hint                            : MP3
Duration                                 : 1h 49mn
Bit rate mode                            : Variable
Bit rate                                 : 128 Kbps
Channel(s)                               : 2 channels
Sampling rate                            : 48.0 KHz
Compression mode                         : Lossy
Delay relative to video                  : 1s 0ms
Stream size                              : 99.9 MiB (2%)
Title                                    : Español Latino Original
Writing library                          : LAME3.90.
Encoding settings                        : -m j -V 4 -q 2 -lowpass 17.6 --abr 128
Language                                 : Spanish
Default                                  : Yes
Forced                                   : Yes




Audio #2

ID                                       : 3
Format                                   : AC-3
Format/Info                              : Audio Coding 3
Mode extension                           : CM (complete main)
Format settings, Endianness              : Big
Codec ID                                 : A_AC3
Duration                                 : 1h 55mn
Bit rate mode                            : Constant
Bit rate                                 : 448 Kbps
Channel(s)                               : 6 channels
Channel positions                        : Front: L C R, Side: L R, LFE
Sampling rate                            : 48.0 KHz
Bit depth                                : 16 bits
Compression mode                         : Lossy
Stream size                              : 370 MiB (8%)
Title                                    : Español Latino
Language                                 : Spanish
Default                                  : No
Forced                                   : No




Audio #3

ID                                       : 4
Format                                   : AC-3
Format/Info                              : Audio Coding 3
Mode extension                           : CM (complete main)
Format settings, Endianness              : Big
Codec ID                                 : A_AC3
Duration                                 : 1h 55mn
Bit rate mode                            : Constant
Bit rate                                 : 448 Kbps
Channel(s)                               : 6 channels
Channel positions                        : Front: L C R, Side: L R, LFE
Sampling rate                            : 48.0 KHz
Bit depth                                : 16 bits
Compression mode                         : Lossy
Stream size                              : 370 MiB (8%)
Title                                    : Inglés
Language                                 : English
Default                                  : No
Forced                                   : No




Text #1

ID                                       : 5
Format                                   : UTF-8
Codec ID                                 : S_TEXT/UTF8
Codec ID/Info                            : UTF-8 Plain Text
Title                                    : Español
Language                                 : Spanish
Default                                  : No
Forced                                   : No




Text #2

ID                                       : 6
Format                                   : UTF-8
Codec ID                                 : S_TEXT/UTF8
Codec ID/Info                            : UTF-8 Plain Text
Title                                    : Inglés
Language                                 : English
Default                                  : No
Forced                                   : No




CAPTURAS


Quiero aclarar que todas las capturas son propias, sacadas directamente de las películas, para que haya mejor claridad sobre el material a descargar


(La marca de agua solo está en las capturas, el vídeo está totalmente limpio)
















1984 ? the temple of doom 

  o 

Indiana jones y el templo de la perdicion








SINOPSIS




En 1935, Indiana Jones escapa de gángsters chinos, con la ayuda de la cantante y actriz Willie Scott y un niño oriental de 11 años de edad, Short Round ?en España conocido como Tapón?. Después, llega a un pueblo de la India, donde se entera de que todos los niños han sido secuestrados por una secta secreta, integrada por adoradores de la diosa Kali. Su líder, Mola Ram, es el principal responsable de la desaparición de los niños y de la roca Shankara con la que busca hacerse invencible y apoderarse del mundo. Indiana consigue rescatar a los niños, para regresar con la piedra al pueblo del que fue robada.

(Tomado de Wikipedia)








MEDIA INFO


Esa es la ficha técnica sacada de la película, se informa formato, peso, calidad, duración, Bit rate y demás datos que son necesarios para conocer la calidad real de la misma, para aquellos siempre solicitan datos puntuales:



General


Format                                   : Matroska
Format version                           : Version 4 / Version 2
File size                                : 4.56 GiB
Duration                                 : 1h 58mn
Overall bit rate mode                    : Variable
Overall bit rate                         : 5 514 Kbps
Encoded date                             : UTC 2015-03-04 03:25:33
Writing application                      : mkvmerge v6.3.0 ('You can't stop me!') built on Jun 28 2013 20:09:41
Writing library                          : libebml v1.3.0 + libmatroska v1.4.0




Video

ID                                       : 1
Format                                   : AVC
Format/Info                              : Advanced Video Codec
Format profile                           : [email protected]
Format settings, CABAC                   : Yes
Format settings, ReFrames                : 4 frames
Codec ID                                 : V_MPEG4/ISO/AVC
Duration                                 : 1h 58mn
Bit rate                                 : 4 499 Kbps
Width                                    : 1 920 pixels
Height                                   : 816 pixels
Display aspect ratio                     : 2.35:1
Frame rate mode                          : Constant
Frame rate                               : 23.976 fps
Color space                              : YUV
Chroma subsampling                       : 4:2:0
Bit depth                                : 8 bits
Scan type                                : Progressive
Bits/(Pixel*Frame)                       : 0.120
Stream size                              : 3.63 GiB (80%)
Writing library                          : x264 core 116 r2074 2641b9e
Default                                  : No
Forced                                   : No




Audio #1

ID                                       : 2
Format                                   : MPEG Audio
Format version                           : Version 1
Format profile                           : Layer 3
Mode                                     : Joint stereo
Mode extension                           : MS Stereo
Codec ID                                 : A_MPEG/L3
Codec ID/Hint                            : MP3
Duration                                 : 1h 58mn
Bit rate mode                            : Variable
Bit rate                                 : 118 Kbps
Nominal bit rate                         : 128 Kbps
Channel(s)                               : 2 channels
Sampling rate                            : 48.0 KHz
Compression mode                         : Lossy
Delay relative to video                  : 1s 0ms
Stream size                              : 100 MiB (2%)
Title                                    : Español Latino Original
Writing library                          : LAME3.97 
Encoding settings                        : -m j -V 4 -q 2 -lowpass 17 --abr 128
Language                                 : Spanish
Default                                  : Yes
Forced                                   : Yes




Audio #2

ID                                       : 3
Format                                   : AC-3
Format/Info                              : Audio Coding 3
Mode extension                           : CM (complete main)
Format settings, Endianness              : Big
Codec ID                                 : A_AC3
Duration                                 : 1h 58mn
Bit rate mode                            : Constant
Bit rate                                 : 448 Kbps
Channel(s)                               : 6 channels
Channel positions                        : Front: L C R, Side: L R, LFE
Sampling rate                            : 48.0 KHz
Bit depth                                : 16 bits
Compression mode                         : Lossy
Stream size                              : 380 MiB (8%)
Title                                    : Español Latino
Language                                 : Spanish
Default                                  : No
Forced                                   : No




Audio #3

ID                                       : 4
Format                                   : AC-3
Format/Info                              : Audio Coding 3
Mode extension                           : CM (complete main)
Format settings, Endianness              : Big
Codec ID                                 : A_AC3
Duration                                 : 1h 58mn
Bit rate mode                            : Constant
Bit rate                                 : 448 Kbps
Channel(s)                               : 6 channels
Channel positions                        : Front: L C R, Side: L R, LFE
Sampling rate                            : 48.0 KHz
Bit depth                                : 16 bits
Compression mode                         : Lossy
Stream size                              : 380 MiB (8%)
Title                                    : Inglés
Language                                 : English
Default                                  : No
Forced                                   : No




Text #1

ID                                       : 5
Format                                   : UTF-8
Codec ID                                 : S_TEXT/UTF8
Codec ID/Info                            : UTF-8 Plain Text
Title                                    : Español
Language                                 : Spanish
Default                                  : No
Forced                                   : No




Text #2

ID                                       : 6
Format                                   : UTF-8
Codec ID                                 : S_TEXT/UTF8
Codec ID/Info                            : UTF-8 Plain Text
Title                                    : Inglés
Default                                  : No
Forced                                   : No




CAPTURAS


Quiero aclarar que todas las capturas son propias, sacadas directamente de las películas, para que haya mejor claridad sobre el material a descargar


(La marca de agua solo está en las capturas, el vídeo está totalmente limpio)






















1989 - the last crusade

o

indiana jones y la ultima cruzada







SINOPSIS




En 1938, Indiana Jones es contratado por el empresario estadounidense Walter Donovan para encontrar el Santo Grial. Para su nueva misión, Indiana recibe la ayuda de la doctora Elsa Schneider, poco antes de enterarse de que su padre desapareció sin dejar rastro alguno. Para su sorpresa, Donovan y Elsa están relacionados con los nazis, y han sido ellos quienes han secuestrado al padre de Jones para obtener información acerca de la localización del Grial. Indiana recupera el diario privado de su padre, que contiene valiosa información sobre el cáliz sagrado, y consigue rescatar a éste antes de conocer la ubicación de dicho objeto. Tras encontrarlo, Donovan y Elsa se lo arrebatan, en un intento por conseguir la inmortalidad, pero mueren en el acto por razones diferentes. Al final, Indiana y su padre se percatan de que su relación familiar es más importante que la búsqueda de la reliquia, y el Grial termina desapareciendo junto con el templo en el que se hallaba. 

(Tomado de Wikipedia)








MEDIA INFO


Esa es la ficha técnica sacada de la película, se informa formato, peso, calidad, duración, Bit rate y demás datos que son necesarios para conocer la calidad real de la misma, para aquellos siempre solicitan datos puntuales:




General



GeneralFormat                                   : Matroska
Format version                           : Version 4 / Version 2
File size                                : 4.88 GiB
Duration                                 : 2h 6mn
Overall bit rate                         : 5 510 Kbps
Encoded date                             : UTC 2015-03-04 03:47:28
Writing application                      : mkvmerge v6.3.0 ('You can't stop me!') built on Jun 28 2013 20:09:41
Writing library                          : libebml v1.3.0 + libmatroska v1.4.0




Video

ID                                       : 1
Format                                   : AVC
Format/Info                              : Advanced Video Codec
Format profile                           : [email protected]
Format settings, CABAC                   : Yes
Format settings, ReFrames                : 4 frames
Codec ID                                 : V_MPEG4/ISO/AVC
Duration                                 : 2h 6mn
Bit rate                                 : 4 500 Kbps
Width                                    : 1 920 pixels
Height                                   : 816 pixels
Display aspect ratio                     : 2.35:1
Frame rate mode                          : Constant
Frame rate                               : 23.976 fps
Color space                              : YUV
Chroma subsampling                       : 4:2:0
Bit depth                                : 8 bits
Scan type                                : Progressive
Bits/(Pixel*Frame)                       : 0.120
Stream size                              : 3.89 GiB (80%)
Writing library                          : x264 core 116 r2074 2641b9e0
Default                                  : No
Forced                                   : No




Audio #1

ID                                       : 2
Format                                   : MPEG Audio
Format version                           : Version 1
Format profile                           : Layer 3
Mode                                     : Joint stereo
Mode extension                           : MS Stereo
Codec ID                                 : A_MPEG/L3
Codec ID/Hint                            : MP3
Duration                                 : 2h 6mn
Bit rate mode                            : Constant
Bit rate                                 : 112 Kbps
Channel(s)                               : 2 channels
Sampling rate                            : 44.1 KHz
Compression mode                         : Lossy
Stream size                              : 102 MiB (2%)
Title                                    : Español Latino Original
Writing library                          : LAME3.97 
Encoding settings                        : -m j -V 4 -q 2 -lowpass 15.6 -b 112
Language                                 : Spanish
Default                                  : No
Forced                                   : Yes




Audio #2

ID                                       : 3
Format                                   : AC-3
Format/Info                              : Audio Coding 3
Mode extension                           : CM (complete main)
Format settings, Endianness              : Big
Codec ID                                 : A_AC3
Duration                                 : 2h 6mn
Bit rate mode                            : Constant
Bit rate                                 : 448 Kbps
Channel(s)                               : 6 channels
Channel positions                        : Front: L C R, Side: L R, LFE
Sampling rate                            : 48.0 KHz
Bit depth                                : 16 bits
Compression mode                         : Lossy
Stream size                              : 407 MiB (8%)
Title                                    : Español Latino
Language                                 : Spanish
Default                                  : No
Forced                                   : No




Audio #3

ID                                       : 4
Format                                   : AC-3
Format/Info                              : Audio Coding 3
Mode extension                           : CM (complete main)
Format settings, Endianness              : Big
Codec ID                                 : A_AC3
Duration                                 : 2h 6mn
Bit rate mode                            : Constant
Bit rate                                 : 448 Kbps
Channel(s)                               : 6 channels
Channel positions                        : Front: L C R, Side: L R, LFE
Sampling rate                            : 48.0 KHz
Bit depth                                : 16 bits
Compression mode                         : Lossy
Stream size                              : 407 MiB (8%)
Title                                    : Inglés
Language                                 : English
Default                                  : No
Forced                                   : No




Text #1

ID                                       : 5
Format                                   : UTF-8
Codec ID                                 : S_TEXT/UTF8
Codec ID/Info                            : UTF-8 Plain Text
Title                                    : Español
Language                                 : Spanish
Default                                  : No
Forced                                   : No




Text #2

ID                                       : 6
Format                                   : UTF-8
Codec ID                                 : S_TEXT/UTF8
Codec ID/Info                            : UTF-8 Plain Text
Title                                    : Inglés
Language                                 : English
Default                                  : No
Forced                                   : No




CAPTURAS


Quiero aclarar que todas las capturas son propias, sacadas directamente de las películas, para que haya mejor claridad sobre el material a descargar


(La marca de agua solo está en las capturas, el vídeo está totalmente limpio)

























Bueno, como lo comentaba es un link por película, pero lo dejo encriptado solo en JDownloader para que duren más los link y no pase lo mismo que con la Saga de JAMES BOND, por dejar los link perdí todo mi trabajo... pero JAMES BOND REGRESARA!!!




1981 ? raiders of the lost ark o indiana jones y los cazadores del arca perdida







1984 ? the temple of doom o Indiana jones y el templo de la perdicion








1989 - the last crusade o indiana jones y la ultima cruzada









Para mi, mas que los puntos, lo 


importante son sus comentarios 


para poder mejorar, con un 


gracias es suficiente..













Trilogía Indiana Jones Brrip- Tri Audio-Mega 1Link
50 Puntos Score: 10/10
Visitas: 2510 Favoritos: 7
Ver los usuarios que votaron...
27 Comentarios Trilogía Indiana Jones Brrip- Tri Audio-Mega 1Link
le doy a agregar links y no me aparecen...
Hola amigo... estoy trabajando en eso...  
@simpson_94  Hola amigo... estoy trabajando en eso... no se porqu?
Ya las tengo pero gan aporte.
carajo!!!!!!


amigo por favor pasame los cazadores del arca perdida, que tenia el disco con el doblaje original y se me cargo, ahora no puedo hallarlo en ningun lado. Porfavor hazlo...
@simpson_94 @resident_z  Amigos, por favor intenten nuevamente....

@Tortuga3 Gracias por el honor de pasar por mi post amigo y por los puntos.....

 
LOS LINKS NO SE AGRAGAN PORQUE EL LINKS ES MEGA.CO,NZ FIJENZE HAY Q AGREGARLE .CO AL LINK.
excelente aporte y gracias a johanssen por el detalle del link con eso ya lo carga jdownloader
Cita Tekken007: Mostrar
ya quedo, esta me la bajo aunque pasen tres dias te daria puntos pero soy novato

por favor acepta mi agradecimiento en cambio
@johanssen Mil gracias amigo por la info!!!! ... voy a encriptarlos por JDownloader para que duren m?
muchas gracias.  
gracias kpo, gran trilogia    
genio mil gracias por compartir... ma?
hola amigo, saludos, no puedo agregar los links, espero puedas solucionarlos
por cierto buen aporte hace tiempo las busco
MUCHAS GRACIAS MEN X COMPARTIR.
tremenda la calidad gracias
@resident_z No te preocupes amigo.. tu agradecimiento es mas que suficiente!!! ... espero que no tard?
Espectacular !!!!  Un aportazo!!!!!  Muchas Gracias!!!!          
@zepol2010 Con gusto amigo!!!!  
nooooo brother, se cayeron enlaces y me falto descargar la ultima pel?
muchas gracias amigo, saludos.  
Muchas gracias!!  
Hoye podrias subir la pelicula THE ABYSS de 1989?
se cayeron los links otra vez
Para dejar un comentario Registrate! o.. eres ya usuario? Accede!